новый адрес
Ссылка на приватное зеркало всего за 1$. Внимание количество ограничено!!!

iTunes

1+1

iTunes

мы

WEB-DL

1

iTunes

Чернобыль

iTunes

Ральф против интернета

Лицензия

ПШазам

Лицензия

Оно 2

Лицензия

30
pack

Вам бонус

ВАЖНО

!!Акция!!

Alien_RageХит недели

RePack

Resident Evil 21

ИГРА 18+

pack

RePack

jed

!!Акция!!

Alien_Rage

RePack

fifa19

RePack

Assassins Creed: Odyssey

RePack

NEED FOR SPEED™ PAYBACK

3 сезон

9 сезон

Бесстыжие 9 сезон

Все сериалы

все сериалы на PB.wtf

RePack

FAR CRY 5
Ребята, катастрофически не хватает 1900р. для оплаты серверов за Октябрь (всвязи с блокировками трафик упал в 3 раза), 1-2р., выручайте.
  

Дэдвуд / Дедвуд / Deadwood / Сезон: 1-3 / Серии: 01-36 из 36 (Дэвид Милч) [2004-2006, вестерн, драма, BDRip] [AVO] (Юрий Сербин) pb.wtf

Дэдвуд через торрент pb.wtf

Размер: 38.18 GB | Добавлен: 6 мес. назад | Торрент скачан:83 раза
Скачать  

01-06-2019 15:33 Дэдвуд Скачать торрент  

Дедвуд
Deadwood
Год выхода в эфир: 2004-2006
Страна: США | USA
Жанр: вестерн
Продолжительность: ~ 00:55:00
Перевод: Авторский (одноголосый, закадровый) |Ю. Сербин|

Режиссер: Эдвард Бьянчи, Даниэль Минахан, Дэвис Гуггенхейм и другие...
В ролях: Тимоти Олифант, Иэн МакШейн, Молли Паркер, Брэд Дуриф, У. Эрл Браун, Джон Хоукс, Паула Малкомсон, Дэйтон Калли, Леон Риппи, Уильям Сэндерсон и другие...
Описание: 1876 год. Городок Дедвуд в Южной Дакоте — настоящая выгребная яма, в которой собирается преступный сброд со всей Америки. Преступления и коррупция настолько прочно вошли в жизнь обитателей Дедвуда, что на них практически не обращают внимания. Убийства привлекают меньше внимания, чем танцы девочек в местном салуне.

В этот, далекий от цивилизации, городишко и приезжают два бывших шерифа — Дикий Билл Хикок и Сэт Баллок — люди, надеющиеся начать новую жизнь. Несмотря на желание жить спокойно и мирно, Хикок и Балок быстро оказываются по разные стороны баррикад с главой местной организованной преступности и фактическим хозяином Дедвуда, Элом Сверендженом — владельцем салуна и гостиницы.

Жизни обоих мужчин самым причудливым образом переплетутся не только с жизнью Элла Сверенджена, но и с жизнями других обитателей города Дедвуд.


Качество: BDRip
Формат: AVI
Видео кодек: XviD
Аудио кодек: AC3
Видео: 720x400 (1.80:1), 23.976 fps, ~1900 kbps avg, ~0.275 bit/pixel
Аудио #1: 48 kHz, AC3 Dolby Digital, 3/2 (L,C,R,l,r) + LFE ch, ~448 kbps avg |Ю. Сербин|
Аудио #2: 48 kHz, AC3 Dolby Digital, 3/2 (L,C,R,l,r) + LFE ch, ~448 kbps avg |Оригинал|

Цитата:

ВНИМАНИЕ! В сериале присутствует большое количество ненормативной лексики.



скриншот  скриншот  скриншот  
General
Complete name : E:\Dedvud.(3.sezona.36.serii.iz.36).2004-2006.XviD.BDRip\Dedvud.(1.sezon.12.serii.iz.12)\Dedvud.(1.sezon.01.seriya.iz.12).2004.XviD.BDRip.avi
Format : AVI
Format/Info : Audio Video Interleave
File size : 1.18 GiB
Duration : 1 h 1 min
Overall bit rate : 2 750 kb/s
Writing application : VirtualDubMod 1.5.10.2 (build 2540/release)
Writing library : VirtualDubMod build 2540/release

Video
ID : 0
Format : MPEG-4 Visual
Format profile : Advanced Simple@L5
Format settings : BVOP1
Format settings, BVOP : 1
Format settings, QPel : No
Format settings, GMC : No warppoints
Format settings, Matrix : Default (MPEG)
Muxing mode : Packed bitstream
Codec ID : XVID
Codec ID/Hint : XviD
Duration : 1 h 1 min
Bit rate : 1 734 kb/s
Width : 720 pixels
Height : 400 pixels
Display aspect ratio : 16:9
Original display aspect rat : 16:9
Frame rate : 23.976 (24000/1001) FPS
Color space : YUV
Chroma subsampling : 4:2:0
Bit depth : 8 bits
Scan type : Progressive
Compression mode : Lossy
Bits/(Pixel*Frame) : 0.251
Stream size : 764 MiB (63%)
Writing library : XviD 1.2.1 (UTC 2008-12-04)

Audio #1
ID : 1
Format : AC-3
Format/Info : Audio Coding 3
Format settings, Endianness : Big
Codec ID : 2000
Duration : 1 h 1 min
Bit rate mode : Constant
Bit rate : 448 kb/s
Channel(s) : 6 channels
Channel positions : Front: L C R, Side: L R, LFE
Sampling rate : 48.0 kHz
Frame rate : 31.250 FPS (1536 SPF)
Bit depth : 16 bits
Compression mode : Lossy
Stream size : 197 MiB (16%)
Alignment : Split accross interleaves
Service kind : Complete Main

Audio #2
ID : 2
Format : AC-3
Format/Info : Audio Coding 3
Format settings, Endianness : Big
Codec ID : 2000
Duration : 1 h 1 min
Bit rate mode : Constant
Bit rate : 448 kb/s
Channel(s) : 6 channels
Channel positions : Front: L C R, Side: L R, LFE
Sampling rate : 48.0 kHz
Frame rate : 31.250 FPS (1536 SPF)
Bit depth : 16 bits
Compression mode : Lossy
Stream size : 197 MiB (16%)
Alignment : Split accross interleaves
Service kind : Complete Main
pb.wtf



Скачать Дэдвуд через торрент http://i28.fastpic.ru/big/2011/1010/01/dc472d04d6927621d4fc6ea2c7fa3d01.jpg Скачать фильм Дэдвуд через торрент бесплантно в хорошем качестве Описание: 1876 год. Городок Дедвуд в Южной Дакоте — настоящая выгребная яма, в которой собирается преступный сброд со всей Америки. ... 10 10 3
Торрент: Зарегистрирован [2019-06-01 15:33] · скачан: 83 раз
Статус: √ проверено
Размер: 38.18 GB
Как cкачать? Как скачать Дэдвуд через торрент | qTorrent

% Раздел Тема Автор DL S | L
Зарубежные сериалы [ 96.13 GB ] Дэдвуд / Дедвуд / Deadwood / Сезон: 1-3 / Серии: 01-36 из 36 [2004-2006 BDRip 720p] [AVO] + [MVO] killermax2013 Скачать
1 | 0

28-11-2019 20:33  

Отключить всю рекламу на сайте

    Дорогой пользователь! Огромная просьба, поблагодарите релизера, оцените раздачу и оставьте свои комментарий, если Вы скачали Дэдвуд через торрент бесплатно! Внесите свою лепту в развитие PiratBit!
    Комментировать посты могут только пользователи прошедшие не сложную регистрацию
    Показать сообщения:    

    Дэдвуд через торрент
    Скачать бесплатно Дэдвуд
    Дэдвуд скачать торрент
    Дэдвуд смотреть онлайн
    Cкачать фильм Дэдвуд бесплатно
    Дэдвуд скачать торрент в хорошем качестве
    Дэдвуд смотреть онлайн бесплатно в хорошем качестве


    Вы не можете начинать темы
    Вы не можете отвечать на сообщения
    Вы не можете редактировать свои сообщения
    Вы не можете удалять свои сообщения
    Вы не можете голосовать в опросах
    Вы не можете прикреплять файлы к сообщениям
    Вы можете скачивать файлы