Ссылка на приватное зеркало нашего сайта всего за 1$. Внимание количество ограничено!!!

2 сезон

iTunes

1 сезон

1

2 сезон

2 сезон

iTunes

1 сезон

RePack

30

Ultimate

ВАЖНО

ИГРА 18+

pack

RePack

MK11
pack

Забери бонус

RePack

jed

!!Акция!!

Alien_Rage

RePack

fifa19

RePack

Assassins Creed: Odyssey

RePack

NEED FOR SPEED™ PAYBACK

4 сезон

9 сезон

Бесстыжие 9 сезон

Все сериалы

все сериалы на PB.wtf

RePack

FAR CRY 5
  

Благие знамения / Good Omens / Сезон: 1 / Серии: 1-6 из 6 (Дуглас Маккиннон) [2019, фэнтези, комедия, WEB-DL 720p] [MVO] (AlexFilm) pb.wtf

Благие знамения через торрент pb.wtf

Размер: 8.08 GB | Добавлен: 1 год 4 мес. назад | Торрент скачан:51 раз
Скачать  

01-06-2019 19:00 Благие знамения Скачать торрент  



Благие знамения / Good Omens

Год выпуска: 2019
Страна: Великобритания, США
Жанр: фэнтези, комедия
Продолжительность: ~01:00:00
Перевод: Профессиональный (многоголосый закадровый) (AlexFilm)
Режиссер: Дуглас Маккиннон

В ролях: Майкл Шин, Дэвид Теннант, Фрэнсис МакДорманд, Шан Брук, Дэниэл Мейс, Сэм Тейлор Бак, Джон Хэмм, Адриа Архона, Пол Чахиди, Нед Деннехи и т.д.
Описание: В центре сюжета ангел Азирафель и демон Кроули, которые объединяют усилия, чтобы предотвратить конец света, так как за долгие века успели привыкнуть к жизни на земле.
Релиз:

Перевод: Константин Кривоногов
Монтаж и сведение звука: Михаил Федосеев
Роли озвучивали:
    • Маргарита Корш
    • Екатерина Кабашова
    • Пётр Гланц Иващенко
    • Кирилл Патрино
    • Михаил Цареградский
    • Алексей Гнеушев
    • Михаил Федосеев

Сэмпл: http://sendfile.su/1497582
rating

Качество: WEB-DL 720p
Формат: MKV
Видео: 1280х544, 25 fps, MPEG-4 AVC ~2800 kbps avg, 0.160 bit/pixel
Аудио Rus: 48 kHz, AC3 Dolby Digital, 3/2 (L,C,R,l,r) + LFE ch, ~384.00 kbps
Аудио Eng: 48 kHz, AC3 Dolby Digital, 3/2 (L,C,R,l,r) + LFE ch, ~640.00 kbps
Субтитры: Русские, английские
скриншот  скриншот  скриншот  
Формат : Matroska
Версия формата : Version 4 / Version 2
Размер файла : 1,27 Гбайт
Продолжительность : 51 м. 15 с.
Общий поток : 3554 Кбит/сек
Название фильма : Good Omens 1x01 @ AlexFilm
Дата кодирования : UTC 2019-06-01 17:37:59
Программа кодирования : mkvmerge v7.9.0 ('Birds') 64bit
Библиотека кодирования : libebml v1.3.1 + libmatroska v1.4.2

Видео
Идентификатор : 1
Формат : AVC
Формат/Информация : Advanced Video Codec
Профиль формата : High@L4.1
Параметр CABAC формата : Да
Параметр ReFrames формата : 5 кадров
Идентификатор кодека : V_MPEG4/ISO/AVC
Продолжительность : 51 м. 15 с.
Битрейт : 2784 Кбит/сек
Ширина : 1280 пикселей
Высота : 544 пикселя
Соотношение сторон : 2,35:1
Режим частоты кадров : Постоянный
Частота кадров : 25,000 кадров/сек
Цветовое пространство : YUV
Субдискретизация насыщенности : 4:2:0
Битовая глубина : 8 бит
Тип развёртки : Прогрессивная
Бит/(Пиксели*Кадры) : 0.160
Размер потока : 1021 Мбайт (78%)
Библиотека кодирования : x264 core 157 r2935 545de2f
Настройки программы : cabac=1 / ref=5 / deblock=1:-3:-3 / analyse=0x3:0x113 / me=umh / subme=8 / psy=1 / psy_rd=1.00:0.00 / mixed_ref=1 / me_range=16 / chroma_me=1 / trellis=2 / 8x8dct=1 / cqm=0 / deadzone=21,11 / fast_pskip=1 / chroma_qp_offset=-2 / threads=17 / lookahead_threads=2 / sliced_threads=0 / nr=0 / decimate=1 / interlaced=0 / bluray_compat=0 / constrained_intra=0 / bframes=3 / b_pyramid=2 / b_adapt=1 / b_bias=0 / direct=3 / weightb=1 / open_gop=0 / weightp=2 / keyint=250 / keyint_min=25 / scenecut=40 / intra_refresh=0 / rc_lookahead=50 / rc=crf / mbtree=1 / crf=18.0 / qcomp=0.60 / qpmin=0 / qpmax=69 / qpstep=4 / ip_ratio=1.40 / aq=3:1.00
Default : Да
Forced : Нет

Аудио #1
Идентификатор : 2
Формат : AC-3
Формат/Информация : Audio Coding 3
Расширение режима : CM (complete main)
Параметр Endianness формата : Big
Идентификатор кодека : A_AC3
Продолжительность : 51 м. 15 с.
Вид битрейта : Постоянный
Битрейт : 384 Кбит/сек
Каналы : 6 каналов
Расположение каналов : Front: L C R, Side: L R, LFE
Частота : 48,0 КГц
Частота кадров : 31,250 кадров/сек (1536 spf)
Метод сжатия : С потерями
Размер потока : 141 Мбайт (11%)
Заголовок : DD5.1 AlexFilm
Язык : Russian
Default : Да
Forced : Нет

Аудио #2
Идентификатор : 3
Формат : AC-3
Формат/Информация : Audio Coding 3
Расширение режима : CM (complete main)
Параметр Endianness формата : Big
Идентификатор кодека : A_AC3
Продолжительность : 51 м. 15 с.
Вид битрейта : Постоянный
Битрейт : 384 Кбит/сек
Каналы : 6 каналов
Расположение каналов : Front: L C R, Side: L R, LFE
Частота : 48,0 КГц
Частота кадров : 31,250 кадров/сек (1536 spf)
Метод сжатия : С потерями
Размер потока : 141 Мбайт (11%)
Заголовок : DD5.1 Original
Язык : English
Default : Нет
Forced : Нет
Внимание! Раздача ведётся путём добавления новых серий; при каждом добавлении создаётся новый торрент. Чтобы начать докачку новой серии, пользователям необходимо сделать следующее:
(1) остановить скачивание,
(2) удалить старый торрент у себя из клиента (старые серии удалять не надо),
(3) скачать новый торрент и запустить его у себя в клиенте вместо старого, при этом указать клиенту путь в старую папку куда и должно происходить скачивание новых серий.
Ваш клиент при этом должен произвести хеширование (проверку) старой папки (если не производит сам - помогите ему сделать это), и будет докачивать только те серии которых у вас ещё нет. Старые серии при этом не удаляются, а продолжают раздаваться!
Eсли вы уже удалили старые серии, то предотвратить повторную закачку старых серий можно, отжав галочку в соответствующих местах при запуске нового торрента. По возможности, желательно не удалять старые серии как можно дольше чтобы релизёр не столько продолжал раздавать старые серии, а смог сконцентрироваться на новых.
pb.wtf



Скачать Благие знамения через торрент https://i106.fastpic.ru/big/2019/0601/a9/7ef9166fca7db65898ccb9d593670aa9.jpg Скачать фильм Благие знамения через торрент бесплантно в хорошем качестве Описание: В центре сюжета ангел Азирафель и демон Кроули, которые объединяют усилия, чтобы предотвратить конец света, так как за долгие ... 10 10 6
Торрент: Зарегистрирован [2019-07-12 09:10] · скачан: 51 раз
Статус: √ проверено
Размер: 8.08 GB
Как cкачать? Как скачать Благие знамения через торрент | qTorrent

% Раздел Тема Автор DL S | L
Зарубежные сериалы [ 20.93 GB ] Благие знамения / Good Omens / Сезон: 1 / Серии: 1-6 из 6 [2019 WEB-DL 1080p] DVO [Кубик в Кубе] bober100 Скачать
2 | 0
Зарубежные сериалы [ 20.93 GB ] Благие знамения / Good Omens / Сезон: 1 / Серии: 1-6 из 6 [2019 WEB-DL 1080p] MVO [Lostfilm] bober100 Скачать
1 | 0
Зарубежные сериалы [ 6.8 GB ] Благие знамения / Good Omens / Сезон: 1 / Серии: 1-6 из 6 [2019 WEB-DLRip-AVC] MVO [AlexFilm LostFilm] - ExKinoRay Enigma2010 Скачать
17 | 2
Зарубежные сериалы [ 30.77 GB ] Благие знамения / Good Omens / Сезон 1 / Серии 1-6 из 6 [2019 UHD WEB-DL 2160p] MVO [LostFilm] sheker187 Скачать
1 | 0
Зарубежные сериалы [ 20.05 GB ] Благие знамения / Good Omens / Сезон: 1 / Серии: 1-6 из 6 [2019 WEB-DL 1080p] [MVO] killermax2013 Скачать
1 | 0
Зарубежные сериалы [ 20.49 GB ] Благие знамения / Good Omens / Сезон: 1 / Серии: 1-6 из 6 [2019 WEB-DL 1080p] MVO [TVShows] bober100 Скачать
1 | 0
Зарубежные сериалы [ 8.3 GB ] Благие знамения / Good Omens / Сезон: 1 / Серии: 1-6 из 6 [2019 WEB-DL 720p] MVO [LostFilm] bober100 Скачать
1 | 0

28-11-2019 20:33  

Отключить всю рекламу на сайте

    Дорогой пользователь! Огромная просьба, поблагодарите релизера, оцените раздачу и оставьте свои комментарий, если Вы скачали Благие знамения через торрент бесплатно! Внесите свою лепту в развитие PiratBit!
    Комментировать посты могут только пользователи прошедшие не сложную регистрацию
    Показать сообщения:    

    Благие знамения через торрент
    Скачать бесплатно Благие знамения
    Благие знамения скачать торрент
    Благие знамения смотреть онлайн
    Cкачать фильм Благие знамения бесплатно
    Благие знамения скачать торрент в хорошем качестве
    Благие знамения смотреть онлайн бесплатно в хорошем качестве


    Вы не можете начинать темы
    Вы не можете отвечать на сообщения
    Вы не можете редактировать свои сообщения
    Вы не можете удалять свои сообщения
    Вы не можете голосовать в опросах
    Вы не можете прикреплять файлы к сообщениям
    Вы можете скачивать файлы