Доктор Стрэндж

Лицензия

Добыча

MVO

Дом дракона

1 сезон

Тор

Лицензия

Мэверик

Лицензия

Там, где раки поют

MVO

Властелин колец

1 сезон

Ultimate

pack

Рекомендуем

30

Repack

ВАЖНО

ВАЖНО

Ghostwire

RePack

jed

RePack

nioh2

RePack

RDR2

RePack

NEED FOR SPEED™ PAYBACK

RePack

скачать торрент

Кинопоиск HD

Острые козырьки 6 сезон

6 сезон

FAR CRY 6

RePack

скачать торрент

Лицензия

скачать торрент

MVO

1

1 сезон

скачать торрент

1 сезон

скачать торрент

Лицензия

  

Прыжок богомола / Серии: 1-2 из 2 (Владимир Балкашинов) [2019, Военный, детектив, шпионский фильм, HDTV 1080i]

Прыжок богомола через торрент pb.wtf

Размер: 9.56 GB | Добавлен: 3 года 4 мес. назад | Торрент скачан:95 раз
Смотреть онлайн | Скачать   

02-06-2019 06:00 Прыжок богомола Скачать торрент  

Прыжок богомола Год выпуска: 2019
Страна: Россия
Жанр: Военный, детектив, шпионский фильм
Продолжительность: ~ 01:30:00
Субтитры: отсутствуют

Режиссер: Владимир Балкашинов



В ролях:

Павел Чинарёв, Татьяна Лялина, Александра Никифорова, Яков Шамшин, Сергей Степанченко, Виктор Супрун, Анатолий Лобоцкий, Дмитрий Брауэр, Владимир Капустин, Иван Лапин, Сергей Сосновский, Евгений Шириков, Владимир Терещенко, Константин Новиков, Алексей Ошурков, Александр Катин (старший), Дмитрий Родонов, Илья Семёнов, Виктор Немец, Роман Синицын, Игорь Поселенов, Вячеслав Морозов, Илья Беляев, Александр Никольский, Александр Кузнецов (XVI), Игорь Трафлялин

Описание:

1942 год. Управление особых отделов НКВД начинает операцию по выявлению агентов, заброшенных на советскую территорию из разведцентра абвера. По заданию командования офицер НКВД разведчик Константин Богомолов под маской уголовника проникает в разведцентр и становится там лучшим курсантом. Постоянные проверки и провокации зачастую ставят Богомолова на грань провала. И вот, когда успех уже близок, и личные дела шпионов уже почти в руках, гитлеровцы забрасывают Богомолова, уже как своего агента, на советскую территорию. Руководство НКВД считает, что Богомолов перевербован, и арестовывает Богомолова и его командира — майора НКВД Маркелова. В последний момент Богомолов бежит. Теперь уже только он сам, в одиночку, без поддержки Большой Земли, должен выполнить задание и тем самым обелить себя и своего командира.

Качество: HDTV 1080i
Формат: TS

Видео: MPEG4 AVC Video, H264, 16:9, 1920x1080, 25 fps, ~7080 kbps, 0.137 bit/pixel
Аудио: MP2, 2 ch, 192 kbps, 16 bits, 48.0 KHz
скриншот  скриншот  скриншот  скриншот  скриншот  

General
ID : 1 (0x1)
Complete name : D:\Pryzhok.bogomola.2019.HDTV.1080i\Pryzhok.bogomola.01.2019.HDTV.1080i.ts
Format : MPEG-TS
File size : 4.74 GiB
Duration : 1 h 28 min
Overall bit rate mode : Variable
Overall bit rate : 7 649 kb/s

Video
ID : 2911 (0xB5F)
Menu ID : 1357 (0x54D)
Format : AVC
Format/Info : Advanced Video Codec
Format profile : [email protected]
Format settings : CABAC / 4 Ref Frames
Format settings, CABAC : Yes
Format settings, ReFrames : 4 frames
Codec ID : 27
Duration : 1 h 28 min
Bit rate : 7 078 kb/s
Width : 1 920 pixels
Height : 1 080 pixels
Display aspect ratio : 16:9
Frame rate : 25.000 FPS
Color space : YUV
Chroma subsampling : 4:2:0
Bit depth : 8 bits
Scan type : MBAFF
Scan type, store method : Interleaved fields
Scan order : Top Field First
Bits/(Pixel*Frame) : 0.137
Stream size : 4.39 GiB (93%)

Audio
ID : 2912 (0xB60)
Menu ID : 1357 (0x54D)
Format : MPEG Audio
Format version : Version 1
Format profile : Layer 2
Codec ID : 3
Duration : 1 h 28 min
Bit rate mode : Constant
Bit rate : 192 kb/s
Channel(s) : 2 channels
Sampling rate : 48.0 kHz
Frame rate : 41.667 FPS (1152 SPF)
Compression mode : Lossy
Delay relative to video : -200 ms
Stream size : 122 MiB (3%)
Language : Russian




Скачать Прыжок богомола через торрент https://i6-imageban-ru.translate.goog/out/2019/05/10/4d8c1e8588675016c04eeba0dd317494.jpg Скачать, смотреть онлайн Прыжок богомола бесплантно в хорошем качестве Описание: 1942 год. Управление особых отделов НКВД начинает операцию по выявлению агентов, заброшенных на советскую территорию из ... 9.3 10 7
Торрент: Зарегистрирован [2019-06-02 06:00] · скачан: 95 раз
Статус: √ проверено
Размер: 9.56 GB
Как cкачать? Как скачать Прыжок богомола через торрент | UTorrent

% Раздел Тема Автор DL S | L
Наши сериалы [ 5.24 GB ] Прыжок богомола / Серии: 1-2 из 2 | | HDTVRip 720p bober100 Скачать
1 | 0
Наши сериалы [ 2.25 GB ] Прыжок Богомола / Серии: 1-4 из 4 | | SATRip-AVC aleksan55 Скачать
1 | 0

28-11-2019 20:33  


Отключить вcю реклaмy на сайте, в т.ч. и в плеере онлайн просмотра!

    Дорогой пользователь! Огромная просьба, поблагодарите релизера, оцените раздачу и оставьте свои комментарий, если Вы скачали Прыжок богомола через торрент бесплатно!!
    Комментировать посты могут только пользователи прошедшие не сложную регистрацию
    Показать сообщения:    


    Прыжок богомола через торрент
    Скачать бесплатно Прыжок богомола
    Прыжок богомола скачать торрент
    Прыжок богомола смотреть онлайн
    Cкачать фильм Прыжок богомола бесплатно
    Прыжок богомола скачать торрент в хорошем качестве
    Прыжок богомола смотреть онлайн бесплатно в хорошем качестве
    Вы не можете начинать темы
    Вы не можете отвечать на сообщения
    Вы не можете редактировать свои сообщения
    Вы не можете удалять свои сообщения
    Вы не можете голосовать в опросах
    Вы не можете прикреплять файлы к сообщениям
    Вы можете скачивать файлы