новый адрес
Мега распродажа FORZA HORIZON 4 ULTIMATE+ВСЕ DLC+ОНЛАЙН всего за 499р. 349 руб. (супер цена). Внимание количество ограничено!!!

iTunes

1+1

iTunes

мы

iTunes

1

iTunes

Чернобыль

iTunes

Ральф против интернета

Лицензия

ПШазам

Лицензия

Оно 2

Лицензия

30
pack

ВАЖНО

!!Акция!!

Alien_RageХит недели

RePack

Resident Evil 21

ИГРА 18+

pack

RePack

Metro:Exodus

!!Акция!!

Alien_Rage

RePack

fifa19

RePack

Assassins Creed: Odyssey

RePack

NEED FOR SPEED™ PAYBACK

3 сезон

9 сезон

Бесстыжие 9 сезон

Все сериалы

все сериалы на PB.wtf

RePack

FAR CRY 5
Ребята, катастрофически не хватает 1900р. для оплаты серверов за Октябрь (всвязи с блокировками трафик упал в 3 раза), 1-2р., выручайте.
  

Оптимистическая трагедия (Самсон Самсонов) [1963, СССР, драма, военный, история, DVDRip от AVP Studio] pb.wtf

Оптимистическая трагедия через торрент pb.wtf

Раздают: 3 [ 0 KB/s ]
Размер: 1.46 GB | Добавлен: 5 мес. 18 д. назад | Торрент скачан:6 раз
Скачать  

02-06-2019 07:31 Оптимистическая трагедия Скачать торрент  

Оптимистическая трагедия
Страна: СССР
Производство: Мосфильм

Жанр: драма, военный, история
Год выпуска: 1963
Продолжительность: 01:53:37

Перевод: Не требуется
Cубтитры: нет
Оригинальная аудиодорожка: русский

Режиссер: Самсон Самсонов

В ролях:
Маргарита Володина, Борис Андреев, Вячеслав Тихонов, Всеволод Санаев, Орво Бернинен, Всеволод Сафонов, Иван Жеваго, Даниил Нетребин, Григорий Михайлов, Пётр Соболевский, Эраст Гарин, Олег Стриженов, Глеб Стриженов, Алексей Глазырин, Валентин Белохвостик, Иосиф Ваньков, Вероника Бужинская, Виктор Шульгин...
Об актёрах подробней

Описание:
1918 год. В морской отряд, которым руководит анархист Вожак, по поручению ЦК партии направляется женщина-комиссар. Ей поручено подчинить моряков делу революции.

Источник: DVD5 R5
Качество видео: DVDRip
Формат видео: AVI

Видео: 688х512 (4:3), 25,000 fps, XviD ~ 1636 kbps avg, 0.186 bit/pixel
Аудио: 48 kHz, Dolby Digital AC3 2.0, 192 kbps

Раздача от:
Общее
Полное имя : Optimisticheskaya.tragediya.1963.DVDRip_[New-team]_by_AVP_Studio.avi
Формат : AVI
Формат/Информация : Audio Video Interleave
Размер файла : 1,46 Гбайт
Продолжительность : 1 ч. 53 м.
Общий поток : 1838 Кбит/сек
Программа кодирования : VirtualDubMod 1.5.10.3 | www.virtualdub-fr.org || (build 2550/release)
Библиотека кодирования : VirtualDubMod build 2550/release

Видео
Идентификатор : 0
Формат : MPEG-4 Visual
Профиль формата : Advanced Simple@L5
Настройки формата : BVOP1 / Custom Matrix
Параметр BVOP формата : 1
Параметр QPel формата : Нет
Параметр GMC формата : Без точки перехода
Параметр матрицы формата : Выборочная
Идентификатор кодека : XVID
Идентификатор кодека/Подсказка : XviD
Продолжительность : 1 ч. 53 м.
Битрейт : 1636 Кбит/сек
Ширина : 688 пикселей
Высота : 512 пикселей
Соотношение сторон : 4:3
Частота кадров : 25,000 кадров/сек
Цветовое пространство : YUV
Субдискретизация насыщенности : 4:2:0
Битовая глубина : 8 бит
Тип развёртки : Прогрессивная
Метод сжатия : С потерями
Бит/(Пиксели*Кадры) : 0.186
Размер потока : 1,30 Гбайт (89%)
Библиотека кодирования : XviD 73

Аудио
Идентификатор : 1
Формат : AC-3
Формат/Информация : Audio Coding 3
Коммерческое название : Dolby Digital
Идентификатор кодека : 2000
Продолжительность : 1 ч. 53 м.
Вид битрейта : Постоянный
Битрейт : 192 Кбит/сек
Каналы : 2 канала
ChannelLayout : L R
Частота : 48,0 КГц
Частота кадров : 31,250 кадров/сек (1536 SPF)
Битовая глубина : 16 бит
Метод сжатия : С потерями
Размер потока : 156 Мбайт (10%)
Выравнивание : Разделение по промежуткам
Продолжительность промежутка : 40 мс. (1,00 видеокадр)
Время предзагрузки промежутка : 500 мс
pb.wtf



Скачать Оптимистическая трагедия через торрент http://b.radikal.ru/b17/1911/0c/0112c513f0e7.png Скачать фильм Оптимистическая трагедия через торрент бесплантно в хорошем качестве Описание:1918 год. В морской отряд, которым руководит анархист Вожак, по поручению ЦК партии направляется женщина-комиссар. Ей поручено ... 10 10 1
Торрент: Зарегистрирован [2019-06-02 07:31] · скачан: 6 раз
Статус: √ проверено
Размер: 1.46 GB
Как cкачать? Как скачать Оптимистическая трагедия через торрент | qTorrent

% Раздел Тема Автор DL S | L
Кино СССР [ 1.46 GB ] Оптимистическая трагедия [1963 СССР военный история DVDRip-AVC от AVP Studio] AVP Studio Скачать
7 | 2


>> Регистрируемся здесь <<






Отзывы и комментарии о схеме читаем и пишем здесь: ---> Отзывы и комментарии о схеме

Новые благодарочки в телеграм довольных пользователей:
скриншот   скриншот   скриншот   скриншот   скриншот
    Дорогой пользователь! Огромная просьба, поблагодарите релизера, оцените раздачу и оставьте свои комментарий, если Вы скачали Оптимистическая трагедия через торрент бесплатно! Внесите свою лепту в развитие PiratBit!
    Комментировать посты могут только пользователи прошедшие не сложную регистрацию
    Показать сообщения:    

    Оптимистическая трагедия через торрент
    Скачать бесплатно Оптимистическая трагедия
    Оптимистическая трагедия скачать торрент
    Оптимистическая трагедия смотреть онлайн
    Cкачать фильм Оптимистическая трагедия бесплатно
    Оптимистическая трагедия скачать торрент в хорошем качестве
    Оптимистическая трагедия смотреть онлайн бесплатно в хорошем качестве


    Вы не можете начинать темы
    Вы не можете отвечать на сообщения
    Вы не можете редактировать свои сообщения
    Вы не можете удалять свои сообщения
    Вы не можете голосовать в опросах
    Вы не можете прикреплять файлы к сообщениям
    Вы можете скачивать файлы