Ссылка на приватное зеркало нашего сайта всего за 1$. Внимание количество ограничено!!!

2 сезон

iTunes

1 сезон

1

2 сезон

2 сезон

iTunes

1 сезон

RePack

30

Ultimate

ВАЖНО

ИГРА 18+

pack

RePack

MK11
pack

Забери бонус

RePack

jed

!!Акция!!

Alien_Rage

RePack

fifa19

RePack

Assassins Creed: Odyssey

RePack

NEED FOR SPEED™ PAYBACK

4 сезон

9 сезон

Бесстыжие 9 сезон

Все сериалы

все сериалы на PB.wtf

RePack

FAR CRY 5
  

Чем мы заняты в тени / Реальные упыри / What We Do in the Shadows / Сезон: 1 / Серии: 1-10 из 10 (Джемейн Клемент, Джейсон Уолинер, Тайка Вайтити) [2019, комедия, ужасы, WEB-DL 1080p] 2xMVO [LostFilm, Ozz] pb.wtf

Чем мы заняты в тени через торрент pb.wtf

Размер: 16.93 GB | Добавлен: 1 год 5 мес. назад | Торрент скачан:52 раза
Скачать  

02-06-2019 10:34 Чем мы заняты в тени Скачать торрент  

Чем мы заняты в тени / Реальные упыри / What We Do in the Shadows Год выпуска: 2019
Страна: США
Жанр: комедия, ужасы
Продолжительность: 00:28:31
Перевод: Профессиональный (многоголосый закадровый) LostFilm
Перевод 2: Профессиональный (многоголосый закадровый) Ozz - Присутствует ненормативная лексика!
Субтитры: Русские, английские

Режиссёр: Джемейн Клемент, Джейсон Уолинер, Тайка Вайтити

В ролях:

Кайван Новак, Харви Гильен, Натасия Деметриу, Мэтт Берри, Марк Прокш, Крис Перфетти, Вероника Словиковска, Александра Хенриксон, Шиван Фэллон

Описание:

США, двадцать первый век. Жители городов давно пользуются беспроводным интернетом, мобильными телефонами, оплачивают покупки банковскими картами и заказывают все, что нужно, в интернете. Но некогда могущественные, а ныне совершенно беспомощные в быту вампиры никак не могут привыкнуть к современным реалиям. Среди них древний и обстоятельный вампир Нандо (Кайван Новак), жизнерадостный мексиканец Гильермо (Харви Гильен), туповатый европеец Ласло (Мэтт Берри), способный превращаться в летучую мышь, и острая на язык Надя (Натасия Деметриу). Удивительно веселая и невероятно реалистичная новозеландская история о том, как группа молодых людей, вооружившись камерами и прочей техникой, занимается съёмкой документального кино. Эта работа может совершить прорыв в жанре, однако парням изо дня в день приходится сталкиваться с по-настоящему странными событиями! А на что они ещё рассчитывали, раз брались снимать документалку про вампиров? Горе-команда находится в Веллингтоне, где и происходят события этого сериала. Они хотят рассказать всему миру, насколько сложно жить среди людей, когда ты - настоящий вампир!

rating


Качество: WEB-DL 1080p
Контейнер: MKV

Видео: MPEG-4 AVC, 1920x1080 (16:9), 23.976 fps, 9406 Kbps, 0.189 bit/pixel
Аудио 1: 48 kHz, AC3 Dolby Digital, 2 ch, 192 Kbps | LostFilm
Аудио 2: 48 kHz, AC3 Dolby Digital, 2 ch, 192 Kbps | Ozz - Присутствует ненормативная лексика!
Аудио 3: 48 kHz, AC3 Dolby Digital, 6 ch, 640 Kbps | английский
Релиз без рекламы

Профессиональный многоголосый закадровый перевод: LostFilm
Профессиональный многоголосый закадровый перевод: Ozz
Роли озвучивают: Иван Кузнецов, Ирина Воронова и Алексей Серегин
Автор перевода: Александр Шумилов

Очистка от рекламы: Atla22
1-01. Пилот / Pilot
1-02. Муниципальный совет / City Council
1-03. Вражда с оборотнями / Werewolf Feud
1-04. Ночной клуб на Манхэттене / Manhattan Night Club
1-05. Служба контроля за животными / Animal Control
1-06. Барон выходит в свет / Baron's Night Out
1-07. Суд / The Trial
1-08. Гражданство / Citizenship
1-09. Оргия / The Orgy
General
Complete name :Downloads\Чем мы заняты в тени. Сериал. 2019. MVO (WEB-DL 1080p)\What.We.Do.in.the.Shadows.s01e01. Пилот.mkv
Format : Matroska
Format version : Version 2
File size : 2.12 GiB
Duration : 28mn 31s
Overall bit rate : 10.6 Mbps
Writing application : mkvmerge v6.9.1 ('Blue Panther') 32bit built on Apr 18 2014 18:15:44
Writing library : libebml v1.3.0 + libmatroska v1.4.1
Video #1
ID : 1
Format : AVC
Format/Info : Advanced Video Codec
Format profile : High@L4.0
Format settings, CABAC : Yes
Format settings, ReFrames : 4 frames
Codec ID : V_MPEG4/ISO/AVC
Duration : 28mn 31s
Bit rate mode : Constant
Bit rate : 9 406 Kbps
Nominal bit rate : 10 000 Kbps
Width : 1 920 pixels
Height : 1 080 pixels
Display aspect ratio : 16:9
Frame rate mode : Constant
Frame rate : 23.976 fps
Color space : YUV
Chroma subsampling : 4:2:0
Bit depth : 8 bits
Scan type : Progressive
Bits/(Pixel*Frame) : 0.189
Stream size : 1.87 GiB (88%)
Language : English
Default : Yes
Forced : No
Color primaries : BT.709
Transfer characteristics : BT.709
Matrix coefficients : BT.709
Color range : Limited
Audio #2
ID : 2
Format : AC-3
Format/Info : Audio Coding 3
Mode extension : CM (complete main)
Format settings, Endianness : Big
Codec ID : A_AC3
Duration : 28mn 31s
Bit rate mode : Constant
Bit rate : 192 Kbps
Channel(s) : 2 channels
Channel positions : Front: L R
Sampling rate : 48.0 KHz
Bit depth : 16 bits
Compression mode : Lossy
Stream size : 39.2 MiB (2%)
Title : LostFilm
Language : Russian
Default : Yes
Forced : No
Audio #3
ID : 3
Format : AC-3
Format/Info : Audio Coding 3
Mode extension : CM (complete main)
Format settings, Endianness : Big
Codec ID : A_AC3
Duration : 28mn 31s
Bit rate mode : Constant
Bit rate : 192 Kbps
Channel(s) : 2 channels
Channel positions : Front: L R
Sampling rate : 48.0 KHz
Bit depth : 16 bits
Compression mode : Lossy
Stream size : 39.2 MiB (2%)
Title : Ozz
Language : Russian
Default : No
Forced : No
Audio #4
ID : 4
Format : AC-3
Format/Info : Audio Coding 3
Mode extension : CM (complete main)
Format settings, Endianness : Big
Codec ID : A_AC3
Duration : 28mn 31s
Bit rate mode : Constant
Bit rate : 640 Kbps
Channel(s) : 6 channels
Channel positions : Front: L C R, Side: L R, LFE
Sampling rate : 48.0 KHz
Bit depth : 16 bits
Compression mode : Lossy
Stream size : 131 MiB (6%)
Language : English
Default : No
Forced : No
Text #5
ID : 5
Format : UTF-8
Codec ID : S_TEXT/UTF8
Codec ID/Info : UTF-8 Plain Text
Language : Russian
Default : No
Forced : No
Text #6
ID : 6
Format : UTF-8
Codec ID : S_TEXT/UTF8
Codec ID/Info : UTF-8 Plain Text
Title : SDH
Language : English
Default : No
Forced : No
скриншот  скриншот  скриншот  

скриншот  скриншот  скриншот  
(1) остановить скачивание,
(2) удалить старый торрент у себя из клиента (старые серии удалять не надо),
(3) скачать новый торрент и запустить его у себя в клиенте вместо старого, при этом указать клиенту путь в старую папку куда и должно происходить скачивание новых серий.
Ваш клиент при этом должен произвести хеширование (проверку) старой папки (если не производит сам - помогите ему сделать это), и будет докачивать только те серии которых у вас ещё нет. Старые серии при этом не удаляются, а продолжают раздаваться!
Eсли вы уже удалили старые серии, то предотвратить повторную закачку старых серий можно, отжав галочку в соответсвующих местах при запуске нового торрента. По возможности, желательно не удалять старые серии как можно дольше чтобы релизёр не столько продолжал раздавать старые серии, а смог сконцентрироваться на новых
.
pb.wtf



Скачать Чем мы заняты в тени через торрент https://c.radikal.ru/c17/1906/3f/1f029addf555.jpg Скачать фильм Чем мы заняты в тени через торрент бесплантно в хорошем качестве Описание: США, двадцать первый век. Жители городов давно пользуются беспроводным интернетом, мобильными телефонами, оплачивают покупки ... 10 10 3
Торрент: Зарегистрирован [2019-06-02 10:34] · скачан: 52 раз
Статус: √ проверено
Размер: 16.93 GB
Как cкачать? Как скачать Чем мы заняты в тени через торрент | qTorrent

% Раздел Тема Автор DL S | L
Зарубежные сериалы [ 1.59 GB ] Чем мы заняты в тени / Реальные упыри / What We Do in the Shadows / Сезон: 2 / Серии: 1-5 из 10 [2020 WEB-DLRip] MVO [NewStudio] bober100 Скачать
2 | 0
Зарубежные сериалы [ 18.25 GB ] Чем мы заняты в тени / Реальные упыри / What We Do in the Shadows / Сезон: 2 / Серии: 1-10 из 10 [2020 WEB-DL 1080p] 2xMVO [Lostfilm NewStudio] bober100 Скачать
2 | 0
Зарубежные сериалы [ 1.93 GB ] Чем мы заняты в тени / Реальные упыри / What We Do in the Shadows / Сезон: 2 / Серии: 1-2 из 10 [2020 WEB-DL 720p] MVO [HDRezka Studio] bober100 Скачать
1 | 0
Зарубежные сериалы [ 18.37 GB ] Чем мы заняты в тени / Реальные упыри / What We Do in the Shadows / Сезон: 1 / Серии: 1-10 из 10 [2019 WEB-DL 1080p] DVO [Кубик в Кубе] bober100 Скачать
2 | 0
Зарубежные сериалы [ 2.87 GB ] Чем мы заняты в тени / Реальные упыри / What We Do in the Shadows / Сезон: 1 / Серии: 1-10 из 10 [2019 WEB-DLRip] DVO [Good People] bober100 Скачать
1 | 0
Зарубежные сериалы [ 2.94 GB ] Чем мы заняты в тени / Реальные упыри / What We Do in the Shadows / Сезон: 1 / Серии: 1-10 из 10 [2019 WEB-DLRip] MVO [LostFilm] bober100 Скачать
1 | 0

28-11-2019 20:33  

Отключить всю рекламу на сайте

    Дорогой пользователь! Огромная просьба, поблагодарите релизера, оцените раздачу и оставьте свои комментарий, если Вы скачали Чем мы заняты в тени через торрент бесплатно! Внесите свою лепту в развитие PiratBit!
    Комментировать посты могут только пользователи прошедшие не сложную регистрацию
    Показать сообщения:    

    Чем мы заняты в тени через торрент
    Скачать бесплатно Чем мы заняты в тени
    Чем мы заняты в тени скачать торрент
    Чем мы заняты в тени смотреть онлайн
    Cкачать фильм Чем мы заняты в тени бесплатно
    Чем мы заняты в тени скачать торрент в хорошем качестве
    Чем мы заняты в тени смотреть онлайн бесплатно в хорошем качестве


    Вы не можете начинать темы
    Вы не можете отвечать на сообщения
    Вы не можете редактировать свои сообщения
    Вы не можете удалять свои сообщения
    Вы не можете голосовать в опросах
    Вы не можете прикреплять файлы к сообщениям
    Вы можете скачивать файлы