Ссылка на приватное зеркало всего за 1$. Внимание количество ограничено!!!

iTunes

iTunes

iTunes

1

iTunes

iTunes

iTunes

iTunes

iTunes

30
pack

$ от Little Big

ВАЖНО

!!Акция!!

Alien_RageХит недели

RePack

Resident Evil 21

ИГРА 18+

pack

RePack

jed

!!Акция!!

Alien_Rage

RePack

fifa19

RePack

Assassins Creed: Odyssey

RePack

NEED FOR SPEED™ PAYBACK

4 сезон

9 сезон

Бесстыжие 9 сезон

Все сериалы

все сериалы на PB.wtf

RePack

FAR CRY 5
  

Бладфест / Кровавый фестиваль / Blood Fest (Оуэн Эгертон) [2018, ужасы, комедия, BD Remux 1080p] DUB [iTunes] pb.wtf

Бладфест через торрент pb.wtf

Размер: 14.23 GB | Добавлен: 3 мес. 9 д. назад | Торрент скачан:27 раз
Скачать  

02-06-2019 16:13 Бладфест Скачать торрент  

Бладфест | Кровавый фестиваль | Blood Fest
Год выпуска: 2018
Страна: США
Студия: Rooster Teeth Productions
Жанр: ужасы, комедия
Продолжительность: 01:32:42
Перевод: Дублированный | iTunes
Субтитры: Английские

Режиссер: Оуэн Эгертон

rating

В ролях: Закари Ливай, Сейшелл Гэбриел, Тейт Донован, Робби Кей, Джейкоб Баталон, Исла Червелли, Барбара Данкельман, Оливия Грэйс Эпплгейт, Джульетт Кида, Пол Огола

Описание: Ещё ребенком Дакс стал свидетелем убийства матери, но после этого не перестал любить фильмы ужасов. Через несколько лет в компании единомышленников парень готовится поехать на Бладфест, посвященный самым известным картинам жанра, но отец сильно против. Все-таки пробравшись на заветное мероприятие, Дакс с друзьями вскоре обнаруживает, что название у фестиваля буквальное — фанаты фильмов ужасов сами оказываются участниками кровавого хоррора.

Качество: BD Remux 1080p
Формат: MKV

Видео: MPEG-2 AVC, 1920x1080, 18.0 Mbit/s, 23.976 fps
Аудио #01: 48 kHz, AC3, 5.1, 384 Kbps | iTunes | RUS |
Аудио #02: 48 kHz, DTS-HD MA, 5.1, 3594 Kbps | Оригинал | ENG |
скриншот  скриншот  скриншот  скриншот  скриншот  

General
Unique ID : 288846251057807025552786101408521309317 (0xD94DC3B1443A6EF2CF2C57238898CC85)
Complete name : E:Video111Blood.Fest.2018.BDREMUX.1080p.seleZen.mkv
Format : Matroska
Format version : Version 4
File size : 14.2 GiB
Duration : 1 h 32 min
Overall bit rate mode : Variable
Overall bit rate : 22.0 Mb/s
Movie name : Blood Fest 2018 from селезень
Encoded date : UTC 2020-02-22 01:15:32
Writing application : mkvmerge v40.0.0 ('Old Town Road + Pony') 64-bit
Writing library : libebml v1.3.9 + libmatroska v1.5.2

Video
ID : 1
Format : MPEG Video
Format version : Version 2
Format profile : Main@High
Format settings : CustomMatrix / BVOP
Format settings, BVOP : Yes
Format settings, Matrix : Custom
Format settings, GOP : M=3, N=15
Codec ID : V_MPEG2
Codec ID/Info : MPEG 1 or 2 Video
Duration : 1 h 32 min
Bit rate mode : Variable
Bit rate : 18.0 Mb/s
Maximum bit rate : 25.0 Mb/s
Width : 1 920 pixels
Height : 1 080 pixels
Display aspect ratio : 16:9
Frame rate mode : Constant
Frame rate : 23.976 (24000/1001) FPS
Color space : YUV
Chroma subsampling : 4:2:0
Bit depth : 8 bits
Scan type : Progressive
Compression mode : Lossy
Bits/(Pixel*Frame) : 0.362
Time code of first frame : 00:00:00:00
Time code source : Group of pictures header
GOP, Open/Closed : Closed
Stream size : 11.6 GiB (82%)
Language : English
Default : Yes
Forced : No

Audio #1
ID : 2
Format : AC-3
Format/Info : Audio Coding 3
Commercial name : Dolby Digital
Codec ID : A_AC3
Duration : 1 h 32 min
Bit rate mode : Constant
Bit rate : 384 kb/s
Channel(s) : 6 channels
Channel layout : L R C LFE Ls Rs
Sampling rate : 48.0 kHz
Frame rate : 31.250 FPS (1536 SPF)
Compression mode : Lossy
Stream size : 255 MiB (2%)
Title : iTunes
Language : Russian
Service kind : Complete Main
Default : Yes
Forced : Yes

Audio #2
ID : 3
Format : DTS XLL
Format/Info : Digital Theater Systems
Commercial name : DTS-HD Master Audio
Codec ID : A_DTS
Duration : 1 h 32 min
Bit rate mode : Variable
Bit rate : 3 594 kb/s
Channel(s) : 6 channels
Channel layout : C L R Ls Rs LFE
Sampling rate : 48.0 kHz
Frame rate : 93.750 FPS (512 SPF)
Bit depth : 24 bits
Compression mode : Lossless
Stream size : 2.33 GiB (16%)
Title : Original
Language : English
Default : No
Forced : No

Text #1
ID : 4
Format : UTF-8
Codec ID : S_TEXT/UTF8
Codec ID/Info : UTF-8 Plain Text
Duration : 1 h 27 min
Bit rate : 65 b/s
Count of elements : 1737
Stream size : 42.2 KiB (0%)
Title : Full
Language : English
Default : No
Forced : No

Text #2
ID : 5
Format : UTF-8
Codec ID : S_TEXT/UTF8
Codec ID/Info : UTF-8 Plain Text
Duration : 1 h 28 min
Bit rate : 67 b/s
Count of elements : 1809
Stream size : 43.8 KiB (0%)
Title : SDH
Language : English
Default : No
Forced : No

Menu
00:00:00.000 : en:Chapter 1
00:11:10.003 : en:Chapter 2
00:22:31.016 : en:Chapter 3
00:34:59.931 : en:Chapter 4
00:46:09.934 : en:Chapter 5
00:57:06.923 : en:Chapter 6
01:07:08.900 : en:Chapter 7
01:18:15.900 : en:Chapter 8
01:27:11.893 : en:Chapter 9
pb.wtf



Скачать Бладфест через торрент https://a.radikal.ru/a27/2002/01/e300c971ed46.jpg Скачать фильм Бладфест через торрент бесплантно в хорошем качестве Описание: Ещё ребенком Дакс стал свидетелем убийства матери, но после этого не перестал любить фильмы ужасов. Через несколько лет в ... 10 10 3
Торрент: Зарегистрирован [2020-02-22 01:47] · скачан: 27 раз
Статус: √ проверено
Размер: 14.23 GB
Как cкачать? Как скачать Бладфест через торрент | qTorrent

% Раздел Тема Автор DL S | L
T Фильмы [HD 720p, 1080p] (Хороший звук DUB, MVO) [ 7.33 GB ] Бладфест / Кровавый фестиваль / Blood Fest [2018 BDRip 1080p] bober100 Скачать
1 | 0
Фильмы 2018 [DVDrip, WEB-DLRip, HDrip] (DUB, MVO) [ 1.42 GB ] Бладфест / Кровавый фестиваль / Blood Fest [2018 BDRip] - Twi7ter Скачать
5 | 0
T Фильмы [HD 720p, 1080p] (Хороший звук DUB, MVO) [ 4.05 GB ] Бладфест / Кровавый фестиваль / Blood Fest [2018 BDRip 720p] bober100 Скачать
2 | 0

28-11-2019 20:33  

Отключить всю рекламу на сайте

    Дорогой пользователь! Огромная просьба, поблагодарите релизера, оцените раздачу и оставьте свои комментарий, если Вы скачали Бладфест через торрент бесплатно! Внесите свою лепту в развитие PiratBit!
    Комментировать посты могут только пользователи прошедшие не сложную регистрацию
    Показать сообщения:    

    Бладфест через торрент
    Скачать бесплатно Бладфест
    Бладфест скачать торрент
    Бладфест смотреть онлайн
    Cкачать фильм Бладфест бесплатно
    Бладфест скачать торрент в хорошем качестве
    Бладфест смотреть онлайн бесплатно в хорошем качестве


    Вы не можете начинать темы
    Вы не можете отвечать на сообщения
    Вы не можете редактировать свои сообщения
    Вы не можете удалять свои сообщения
    Вы не можете голосовать в опросах
    Вы не можете прикреплять файлы к сообщениям
    Вы можете скачивать файлы