Ссылка на приватное зеркало всего за 1$. Внимание количество ограничено!!!

iTunes

iTunes

iTunes

1

iTunes

iTunes

iTunes

iTunes

iTunes

30
pack

Новость дня

ВАЖНО

!!Акция!!

Alien_RageХит недели

RePack

Resident Evil 21

ИГРА 18+

pack

RePack

jed

!!Акция!!

Alien_Rage

RePack

fifa19

RePack

Assassins Creed: Odyssey

RePack

NEED FOR SPEED™ PAYBACK

4 сезон

9 сезон

Бесстыжие 9 сезон

Все сериалы

все сериалы на PB.wtf

RePack

FAR CRY 5
  

Бладфест / Кровавый фестиваль / Blood Fest (Оуэн Эгертон) [2018, ужасы, комедия, BDRip 720p] DUB [iTunes] pb.wtf

Бладфест через торрент pb.wtf

Размер: 4.05 GB | Добавлен: 3 мес. 4 д. назад | Торрент скачан:41 раз
Скачать  

02-06-2019 16:13 Бладфест Скачать торрент  

Бладфест | Кровавый фестиваль | Blood Fest
Год выпуска: 2018
Страна: США
Студия: Rooster Teeth Productions
Жанр: ужасы, комедия
Продолжительность: 01:32:42
Перевод: Дублированный | iTunes
Субтитры: Английские

Режиссер: Оуэн Эгертон

rating

В ролях: Закари Ливай, Сейшелл Гэбриел, Тейт Донован, Робби Кей, Джейкоб Баталон, Исла Червелли, Барбара Данкельман, Оливия Грэйс Эпплгейт, Джульетт Кида, Пол Огола

Описание: Ещё ребенком Дакс стал свидетелем убийства матери, но после этого не перестал любить фильмы ужасов. Через несколько лет в компании единомышленников парень готовится поехать на Бладфест, посвященный самым известным картинам жанра, но отец сильно против. Все-таки пробравшись на заветное мероприятие, Дакс с друзьями вскоре обнаруживает, что название у фестиваля буквальное — фанаты фильмов ужасов сами оказываются участниками кровавого хоррора.

Качество: BDRip 720p
Формат: MKV

Видео: MPEG-2 AVC, 1280x640, 5230 Kbit/s, 23.976 fps
Аудио #01: 48 kHz, AC3, 5.1, 384 Kbps | iTunes | RUS |
Аудио #02: 48 kHz, AC3, 5.1, 640 Kbps | Оригинал | ENG |
скриншот  скриншот  скриншот  скриншот  

Общее
Уникальный идентификатор: 221583450607570369540760174434646106697 (0xA6B36B96DA3F9C4F943EBFA6F5FA2249)
Полное имя: Bladfest.2018.BDRip.720p.ELEKTRI4KA.UNIONGANG.mkv
Формат: Matroska
Версия формата: Version 4
Размер файла: 4,05 Гбайт
Продолжительность: 1 ч. 32 м.
Общий поток: 6255 Кбит/сек
Название фильма: ELEKTRI4KA.UNIONGANG
Дата кодирования: UTC 2020-02-22 09:04:10
Программа кодирования: mkvmerge v8.3.0 ('Over the Horizon') 64bit
Библиотека кодирования: libebml v1.3.1 + libmatroska v1.4.2

Видео
Идентификатор: 1
Формат: AVC
Формат/Информация: Advanced Video Codec
Профиль формата: High@L4.1
Настройки формата: CABAC / 5 Ref Frames
Параметр CABAC формата: Да
Параметр RefFrames формата: 5 кадров
Идентификатор кодека: V_MPEG4/ISO/AVC
Продолжительность: 1 ч. 32 м.
Битрейт: 5230 Кбит/сек
Ширина: 1280 пикселей
Высота: 640 пикселей
Соотношение сторон: 2,000
Режим частоты кадров: Постоянный
Частота кадров: 23,976 (24000/1001) кадра/сек
Цветовое пространство: YUV
Субдискретизация насыщенности: 4:2:0
Битовая глубина: 8 бит
Тип развёртки: Прогрессивная
Бит/(Пиксели*Кадры): 0.266
Размер потока: 3,39 Гбайт (84%)
Библиотека кодирования: x264 core 157 r2935 545de2f
Настройки программы: cabac=1 / ref=5 / deblock=1:-3:-3 / analyse=0x3:0x113 / me=umh / subme=8 / psy=1 / psy_rd=1.00:0.25 / mixed_ref=1 / me_range=24 / chroma_me=1 / trellis=1 / 8x8dct=1 / cqm=0 / deadzone=21,11 / fast_pskip=1 / chroma_qp_offset=-4 / threads=20 / lookahead_threads=3 / sliced_threads=0 / nr=0 / decimate=1 / interlaced=0 / bluray_compat=0 / constrained_intra=0 / bframes=3 / b_pyramid=2 / b_adapt=1 / b_bias=0 / direct=3 / weightb=1 / open_gop=0 / weightp=2 / keyint=240 / keyint_min=24 / scenecut=40 / intra_refresh=0 / rc_lookahead=50 / rc=2pass / mbtree=1 / bitrate=5230 / ratetol=1.0 / qcomp=0.60 / qpmin=0 / qpmax=69 / qpstep=4 / cplxblur=20.0 / qblur=0.5 / ip_ratio=1.40 / aq=1:0.75
Язык: English
Default: Да
Forced: Нет

Аудио #1
Идентификатор: 2
Формат: AC-3
Формат/Информация: Audio Coding 3
Коммерческое название: Dolby Digital
Идентификатор кодека: A_AC3
Продолжительность: 1 ч. 32 м.
Вид битрейта: Постоянный
Битрейт: 384 Кбит/сек
Каналы: 6 каналов
Channel layout: L R C LFE Ls Rs
Частота: 48,0 КГц
Частота кадров: 31,250 кадров/сек (1536 SPF)
Битовая глубина: 16 бит
Метод сжатия: С потерями
Размер потока: 255 Мбайт (6%)
Заголовок: iTunes
Язык: Russian
ServiceKind/String: Complete Main
Default: Да
Forced: Нет

Аудио #2
Идентификатор: 3
Формат: AC-3
Формат/Информация: Audio Coding 3
Коммерческое название: Dolby Digital
Идентификатор кодека: A_AC3
Продолжительность: 1 ч. 32 м.
Вид битрейта: Постоянный
Битрейт: 640 Кбит/сек
Каналы: 6 каналов
Channel layout: L R C LFE Ls Rs
Частота: 48,0 КГц
Частота кадров: 31,250 кадров/сек (1536 SPF)
Битовая глубина: 16 бит
Метод сжатия: С потерями
Размер потока: 424 Мбайт (10%)
Заголовок: Original
Язык: English
ServiceKind/String: Complete Main
Default: Нет
Forced: Нет

Меню
00:00:00.000: en:00:00:00.000
00:11:00.285: en:00:11:00.285
00:21:17.526: en:00:21:17.526
00:32:47.007: en:00:32:47.007
00:45:15.671: en:00:45:15.671
00:54:34.646: en:00:54:34.646
01:05:21.126: en:01:05:21.126
01:28:16.291: en:01:28:16.291

pb.wtf



Скачать Бладфест через торрент https://i2.imageban.ru/out/2019/06/04/d4de84ecbb688e0e667e3f901a385166.png Скачать фильм Бладфест через торрент бесплантно в хорошем качестве Описание: Ещё ребенком Дакс стал свидетелем убийства матери, но после этого не перестал любить фильмы ужасов. Через несколько лет в ... 10 10 6
Торрент: Зарегистрирован [2020-02-24 10:52] · скачан: 41 раз
Статус: T временная
Размер: 4.05 GB
Как cкачать? Как скачать Бладфест через торрент | qTorrent

% Раздел Тема Автор DL S | L
T Фильмы [HD 720p, 1080p] (Хороший звук DUB, MVO) [ 7.33 GB ] Бладфест / Кровавый фестиваль / Blood Fest [2018 BDRip 1080p] bober100 Скачать
1 | 0
Фильмы 2018 [DVDrip, WEB-DLRip, HDrip] (DUB, MVO) [ 1.42 GB ] Бладфест / Кровавый фестиваль / Blood Fest [2018 BDRip] - Twi7ter Скачать
5 | 0
Фильмы (Blu-ray, BD-Remux, HDDVD) [ 14.23 GB ] Бладфест / Кровавый фестиваль / Blood Fest [2018 BD Remux 1080p] bober100 Скачать
1 | 0

28-11-2019 20:33  

Отключить всю рекламу на сайте

    Дорогой пользователь! Огромная просьба, поблагодарите релизера, оцените раздачу и оставьте свои комментарий, если Вы скачали Бладфест через торрент бесплатно! Внесите свою лепту в развитие PiratBit!
    Комментировать посты могут только пользователи прошедшие не сложную регистрацию
    Показать сообщения:    

    Бладфест через торрент
    Скачать бесплатно Бладфест
    Бладфест скачать торрент
    Бладфест смотреть онлайн
    Cкачать фильм Бладфест бесплатно
    Бладфест скачать торрент в хорошем качестве
    Бладфест смотреть онлайн бесплатно в хорошем качестве


    Вы не можете начинать темы
    Вы не можете отвечать на сообщения
    Вы не можете редактировать свои сообщения
    Вы не можете удалять свои сообщения
    Вы не можете голосовать в опросах
    Вы не можете прикреплять файлы к сообщениям
    Вы можете скачивать файлы