новый адрес
Ссылка на приватное зеркало всего за 1$. Внимание количество ограничено!!!

iTunes

1+1

iTunes

мы

WEB-DL

1

iTunes

Чернобыль

iTunes

Ральф против интернета

Лицензия

ПШазам

Лицензия

Оно 2

Лицензия

30
pack

Вам бонус

ВАЖНО

!!Акция!!

Alien_RageХит недели

RePack

Resident Evil 21

ИГРА 18+

pack

RePack

jed

!!Акция!!

Alien_Rage

RePack

fifa19

RePack

Assassins Creed: Odyssey

RePack

NEED FOR SPEED™ PAYBACK

3 сезон

9 сезон

Бесстыжие 9 сезон

Все сериалы

все сериалы на PB.wtf

RePack

FAR CRY 5
Ребята, катастрофически не хватает 1900р. для оплаты серверов за Октябрь (всвязи с блокировками трафик упал в 3 раза), 1-2р., выручайте.
  

Карательница / A Vigilante (Сара Даггар-Никсон) [2018, Триллер, драма, криминал, детектив, BDRip-AVC] MVO, [AVO] (BadBajo) - ExKinoRay pb.wtf

Карательница через торрент pb.wtf

Раздают: 3 [ 0 KB/s ]
Размер: 2.07 GB | Добавлен: 6 мес. назад | Торрент скачан:135 раз
Скачать  

02-06-2019 20:58 Карательница Скачать торрент  

Название: Карательница
Оригинальное название: A Vigilante
Год выпуска: 2018
Жанр: Триллер, драма, криминал, детектив
Режиссер: Сара Даггар-Никсон
В ролях: Оливия Уайлд, Морган Спектор, Бетси Айдем, Кайл Кэтлетт, Тони Патано, С.Дж. Уилсон, Джуди Марте, Кристал Лэйк Эванс, Джим Форд, Дэвид Шамбрис

Описание:
Сади помогает жертвам домашнего насилия сбегать от мучителей — она берёт правосудие в свои руки и начинает методично разбираться с негодяями. Но работа карательницы не так проста, а старые шрамы и раны того и гляди дадут о себе знать.


rating

Выпущено: США, Badlands Entertainment, Emmett/Furla/Oasis Films (EFO Films), Film Science
Продолжительность: 01:31:04
Перевод: Профессиональный многоголосый | [HDRezka Studio]
Авторский - А.Важенин [BadBajo]
Субтитры: Английские

БЕЗ КАКОЙ-ЛИБО РЕКЛАМЫ!

Формат: MKV
Качество: BDRip-AVC
Видео: MPEG-4 AVC, 1024x554 (1.85:1), 23.976 fps, 2230 Kbps, 0.164 bit/pixel
Аудио #01: 48 kHz, AC3, 2.0, 192 Kbps | HDRezka Studio | RUS |
Аудио #02: 48 kHz, AC3, 5.1, 384 Kbps | Важенин | RUS |
Аудио #03: 48 kHz, AC3, 5.1, 448 Kbps | Оригинал | ENG |
General
Unique ID : 190651654121042790464188753115088219084 (0x8F6E2C473A9C2373A44C94B54014EBCC)
Complete name : D:\A.Vigilante.2018.2xRus.BDRip.AVC.ExKinoRay.mkv
Format : Matroska
Format version : Version 2
File size : 2.07 GiB
Duration : 1 h 31 min
Overall bit rate : 3 256 kb/s
Movie name : A Vigilante 2018 from ExKinoRay
Encoded date : UTC 2019-06-02 15:45:22
Writing application : mkvmerge v5.6.0 ('Kenya Kane') built on May 27 2012 16:44:04
Writing library : libebml v1.2.3 + libmatroska v1.3.0

Video
ID : 1
Format : AVC
Format/Info : Advanced Video Codec
Format profile : High@L4.1
Format settings, CABAC : Yes
Format settings, ReFrames : 12 frames
Codec ID : V_MPEG4/ISO/AVC
Duration : 1 h 31 min
Bit rate : 2 230 kb/s
Width : 1 024 pixels
Height : 554 pixels
Display aspect ratio : 1.85:1
Frame rate mode : Constant
Frame rate : 23.976 (23976/1000) FPS
Color space : YUV
Chroma subsampling : 4:2:0
Bit depth : 8 bits
Scan type : Progressive
Bits/(Pixel*Frame) : 0.164
Stream size : 1.38 GiB (67%)
Title : Enigma
Writing library : x264 core 152 r2851 ba24899
Encoding settings : cabac=1 / ref=12 / deblock=1:-2:-2 / analyse=0x3:0x113 / me=umh / subme=10 / psy=1 / psy_rd=1.02:0.05 / mixed_ref=1 / me_range=32 / chroma_me=1 / trellis=2 / 8x8dct=1 / cqm=0 / deadzone=21,11 / fast_pskip=0 / chroma_qp_offset=-3 / threads=12 / lookahead_threads=3 / sliced_threads=0 / nr=0 / decimate=0 / interlaced=0 / bluray_compat=0 / constrained_intra=0 / bframes=12 / b_pyramid=2 / b_adapt=2 / b_bias=0 / direct=3 / weightb=1 / open_gop=0 / weightp=2 / keyint=240 / keyint_min=23 / scenecut=40 / intra_refresh=0 / rc=2pass / mbtree=0 / bitrate=2230 / ratetol=1.0 / qcomp=0.60 / qpmin=0 / qpmax=51 / qpstep=4 / cplxblur=20.0 / qblur=0.5 / ip_ratio=1.30 / pb_ratio=1.20 / aq=1:1.00
Language : English
Default : Yes
Forced : No
Color range : Limited
Color primaries : BT.709
Transfer characteristics : BT.709
Matrix coefficients : BT.709

Audio #1
ID : 2
Format : AC-3
Format/Info : Audio Coding 3
Mode extension : CM (complete main)
Format settings, Endianness : Big
Codec ID : A_AC3
Duration : 1 h 31 min
Bit rate mode : Constant
Bit rate : 192 kb/s
Channel(s) : 2 channels
Channel positions : Front: L R
Sampling rate : 48.0 kHz
Frame rate : 31.250 FPS (1536 spf)
Compression mode : Lossy
Stream size : 125 MiB (6%)
Title : MVO (HDRezka Studio)
Language : Russian
Default : Yes
Forced : No

Audio #2
ID : 3
Format : AC-3
Format/Info : Audio Coding 3
Mode extension : CM (complete main)
Format settings, Endianness : Big
Codec ID : A_AC3
Duration : 1 h 31 min
Bit rate mode : Constant
Bit rate : 384 kb/s
Channel(s) : 6 channels
Channel positions : Front: L C R, Side: L R, LFE
Sampling rate : 48.0 kHz
Frame rate : 31.250 FPS (1536 spf)
Compression mode : Lossy
Stream size : 250 MiB (12%)
Title : AVO (BadBajo)
Language : Russian
Default : No
Forced : No

Audio #3
ID : 4
Format : AC-3
Format/Info : Audio Coding 3
Mode extension : CM (complete main)
Format settings, Endianness : Big
Codec ID : A_AC3
Duration : 1 h 31 min
Bit rate mode : Constant
Bit rate : 448 kb/s
Channel(s) : 6 channels
Channel positions : Front: L C R, Side: L R, LFE
Sampling rate : 48.0 kHz
Frame rate : 31.250 FPS (1536 spf)
Compression mode : Lossy
Stream size : 292 MiB (14%)
Language : English
Default : No
Forced : No

Text #1
ID : 5
Format : UTF-8
Codec ID : S_TEXT/UTF8
Codec ID/Info : UTF-8 Plain Text
Title : Full
Language : English
Default : No
Forced : No

Text #2
ID : 6
Format : UTF-8
Codec ID : S_TEXT/UTF8
Codec ID/Info : UTF-8 Plain Text
Title : SDH
Language : English
Default : No
Forced : No

Menu
00:00:00.000 : en:Chapter 01
00:03:41.138 : en:Chapter 02
00:12:33.252 : en:Chapter 03
00:16:13.139 : en:Chapter 04
00:21:27.036 : en:Chapter 05
00:26:54.279 : en:Chapter 06
00:31:13.914 : en:Chapter 07
00:38:22.717 : en:Chapter 08
00:45:25.681 : en:Chapter 09
00:48:27.988 : en:Chapter 10
00:55:48.971 : en:Chapter 11
00:58:34.720 : en:Chapter 12
01:08:25.977 : en:Chapter 13
01:10:26.389 : en:Chapter 14
01:15:58.971 : en:Chapter 15
01:23:39.806 : en:Chapter 16
Релиз от:

Автор релиза: pb.wtf



Скачать Карательница через торрент https://d.radikal.ru/d24/1903/e3/a3552552be3e.jpg Скачать фильм Карательница через торрент бесплантно в хорошем качестве Описание: Сади помогает жертвам домашнего насилия сбегать от мучителей — она берёт правосудие в свои руки и начинает методично разбираться ... 10 10 1
Info! Золотая раздача, скачанное не засчитывается.
Торрент: Зарегистрирован [2019-06-02 20:58] · скачан: 135 раз
Статус: √ проверено
Размер: 2.07 GB
Как cкачать? Как скачать Карательница через торрент | qTorrent

% Раздел Тема Автор DL S | L
Фильмы с авторской озвучкой [ 1.62 GB ] Карательница / A Vigilante [2018 WEB-DLRip-AVC] [AVO] - ExKinoRay Enigma2010 Скачать
11 | 0

28-11-2019 20:33  

Отключить всю рекламу на сайте

    Дорогой пользователь! Огромная просьба, поблагодарите релизера, оцените раздачу и оставьте свои комментарий, если Вы скачали Карательница через торрент бесплатно! Внесите свою лепту в развитие PiratBit!
    Комментировать посты могут только пользователи прошедшие не сложную регистрацию
    Показать сообщения:    

    Карательница через торрент
    Скачать бесплатно Карательница
    Карательница скачать торрент
    Карательница смотреть онлайн
    Cкачать фильм Карательница бесплатно
    Карательница скачать торрент в хорошем качестве
    Карательница смотреть онлайн бесплатно в хорошем качестве


    Вы не можете начинать темы
    Вы не можете отвечать на сообщения
    Вы не можете редактировать свои сообщения
    Вы не можете удалять свои сообщения
    Вы не можете голосовать в опросах
    Вы не можете прикреплять файлы к сообщениям
    Вы можете скачивать файлы