Anonymous, добрый день, присоединяйтесь к нам в Telegram!, здесь всегда актуальный адрес сайта, оперативная поддержка и многое другое!

>

5.6

iTunes

7.4

iTunes

5.7

MVO

1

7.7

1 сезон

6.8

iTunes

7.3

1 сезон

13

6.7

1 сезон

8.3

RePack

30

ULTIMATE

pack

9.9

Лицензия

ВАЖНО

ИГРА 18+

pack

7.3

RePack

MK11

7.7

RePack

jed

7.8

RePack

fifa19

8.5

RePack

RDR2

RePack

NEED FOR SPEED™ PAYBACK

4 сезон

9 сезон

Бесстыжие 9 сезон

Все сериалы

все сериалы на PB.wtf

RePack

FAR CRY 5

Anonymous, добрый день, мы катастрофически не успеваем собрать деньги на оплату серверов, помогите нам пожалуйста 5,10,15р., для нас важна любая помощь . В качестве благодарности мы отключим Вам всю рекламу на сайте (укажите свой ник в строку Ваше имя)!

×
  
Magnet ссылка

Короче / Сезон: 1 / Серии: 1-12 из 12 (Илья Фарфель) [2019, комедия, WEB-DLRip] pb.wtf

Короче через торрент pb.wtf

Раздают: 3 [ 0 KB/s ]
Размер: 3.52 GB | Добавлен: 2 года 3 мес. назад | Торрент скачан:373 раза
Смотреть онлайн Короче | Скачать    Ребята, помогите собрать деньги на оплату серверов!!!

03-06-2019 01:19 Короче Скачать торрент  

Короче Год выпуска: 2019
Страна: Россия
Жанр: комедия
Продолжительность: ~ 00:25:00
Перевод: Не требуется
Субтитры: отсутствуют

Режиссер: Илья Фарфель



В ролях:

Борис Дергачев, Константин Шелягин, Дария Гомес, Николай Сороканов, Павел Демьянов, Дмитрий Овчинников, Денис Шаблий, Александра Кузенкина, Александр Якин, Марина Богатова

Описание:

Комедия по-быстрому. Голая правда о тридцатилетних, о которой не говорят вслух. Но не главный герой, этот парень говорит честно, быстро и вообще не думает. Он живёт от зарплаты до зарплаты, ходит в магазин со своим пакетом, хвастается айфоном перед друзьями и, конечно, безнадёжно влюблён.

Качество: WEB-DLRip
Формат: AVI

Видео: XviD, ~ 1600 Кбит/с, 720х400
Аудио: AC3, 2 ch, 192 Кбит/с
скриншот  скриншот  скриншот  скриншот  

Общее
Полное имя : D:\Koroche.2019.WEB-DLRip.25Kuzmich\Koroche.e01.WEB-DLRip.25Kuzmich.avi
Формат : AVI
Формат/Информация : Audio Video Interleave
Размер файла : 300 Мбайт
Продолжительность : 22 м. 14 с.
Общий поток : 1889 Кбит/сек
Программа кодирования : VirtualDubMod 1.5.10.3 | www.virtualdub-fr.org || (build 2550/release)
Библиотека кодирования : VirtualDubMod build 2550/release

Видео
Идентификатор : 0
Формат : MPEG-4 Visual
Профиль формата : Advanced Simple@L5
Параметр BVOP формата : 1
Параметр QPel формата : Нет
Параметр GMC формата : Без точки перехода
Параметр матрицы формата : Default (MPEG)
Идентификатор кодека : XVID
Идентификатор кодека/Подсказка : XviD
Продолжительность : 22 м. 14 с.
Битрейт : 1687 Кбит/сек
Ширина : 720 пикселей
Высота : 400 пикселей
Соотношение сторон : 16:9
Частота кадров : 25,000 кадров/сек
Цветовое пространство : YUV
Субдискретизация насыщенности : 4:2:0
Битовая глубина : 8 бит
Тип развёртки : Прогрессивная
Метод сжатия : С потерями
Бит/(Пиксели*Кадры) : 0.234
Размер потока : 268 Мбайт (89%)
Библиотека кодирования : XviD 73

Аудио
Идентификатор : 1
Формат : AC-3
Формат/Информация : Audio Coding 3
Расширение режима : CM (complete main)
Параметр Endianness формата : Big
Идентификатор кодека : 2000
Продолжительность : 22 м. 14 с.
Вид битрейта : Постоянный
Битрейт : 192 Кбит/сек
Каналы : 2 канала
Расположение каналов : Front: L R
Частота : 48,0 КГц
Частота кадров : 31,250 кадров/сек (1536 spf)
Метод сжатия : С потерями
Размер потока : 30,5 Мбайт (10%)
Выравнивание : Разделение по промежуткам
Продолжительность промежутка : 40 мс. (1,00 видеокадр)
Время предзагрузки промежутка : 500 мс.

Внимание! Раздача ведётся путём добавления новых серий; при каждом добавлении создаётся новый торрент. Чтобы начать докачку новой серии,пользователям необходимо сделать следующее:
(1) остановить скачивание,
(2) удалить старый торрент у себя из клиента (старые серии удалять не надо),
(3) скачать новый торрент и запустить его у себя в клиенте вместо старого, при этом указать клиенту путь в старую папку куда и должнопроисходить скачивание новых серий.

Ваш клиент при этом должен произвести хеширование (проверку) старой папки (если не производит сам - помогите ему сделать это), и будет докачивать только те серии
которых у вас ещё нет. Старые серии при этом не удаляются, а продолжают раздаваться!

Eсли вы уже удалили старые серии, то предотвратить повторную закачку старых серий можно, отжав галочку в соответствующих местах при запуске нового торрента.

По возможности, желательно не удалять старые серии как можно дольше чтобы релизёр не столько продолжал раздавать старые серии, а смог сконцентрироваться на новых.
pb.wtf



Скачать Короче через торрент https://i110.fastpic.ru/big/2019/0603/00/284206d96b3a4f4319e5f39f532b1200.jpg Скачать, смотреть онлайн Короче бесплантно в хорошем качестве Описание: Комедия по-быстрому. Голая правда о тридцатилетних, о которой не говорят вслух. Но не главный герой, этот парень говорит честно, ... 9.3 10 9
Торрент: Зарегистрирован [2019-06-21 06:06] · скачан: 373 раз
Статус: √ проверено
Размер: 3.52 GB
Как cкачать? Как скачать Короче через торрент | UTorrent

% Раздел Тема Автор DL S | L
TNT serials [ 9.7 GB ] Короче / Сезон: 1 / Серии: 1-12 из 12 [2019 WEB-DL 1080p] bober100 Скачать
2 | 0
TNT serials [ 5.19 GB ] Короче / Сезон: 1 / Серии: 1-12 из 12 [2019 WEB-DL 720p] bober100 Скачать
3 | 0
TNT serials [ 3.44 GB ] Короче / Сезон: 1 / Серии: 1-12 из 12 [2019 WEBRip-AVC] bober100 Скачать
2 | 0

28-11-2019 20:33  

Отключить всю рекламу на сайте

    Дорогой пользователь! Огромная просьба, поблагодарите релизера, оцените раздачу и оставьте свои комментарий, если Вы скачали Короче через торрент бесплатно!
    Комментировать посты могут только пользователи прошедшие не сложную регистрацию
    Показать сообщения:    

    Короче через торрент
    Скачать бесплатно Короче
    Короче скачать торрент
    Короче смотреть онлайн
    Cкачать фильм Короче бесплатно
    Короче скачать торрент в хорошем качестве
    Короче смотреть онлайн бесплатно в хорошем качестве


    Вы не можете начинать темы
    Вы не можете отвечать на сообщения
    Вы не можете редактировать свои сообщения
    Вы не можете удалять свои сообщения
    Вы не можете голосовать в опросах
    Вы не можете прикреплять файлы к сообщениям
    Вы можете скачивать файлы