Anonymous, доброе утро, присоединяйтесь к нам в Telegram!, здесь всегда актуальный адрес сайта, оперативная поддержка и многое другое!

>

5.6

iTunes

7.4

iTunes

5.7

MVO

1

7.7

1 сезон

6.8

iTunes

7.3

1 сезон

13

6.7

1 сезон

8.3

RePack

30

ULTIMATE

pack

9.9

Лицензия

ВАЖНО

ИГРА 18+

pack

7.3

RePack

MK11

7.7

RePack

jed

7.8

RePack

fifa19

8.5

RePack

RDR2

RePack

NEED FOR SPEED™ PAYBACK

4 сезон

9 сезон

Бесстыжие 9 сезон

Все сериалы

все сериалы на PB.wtf

RePack

FAR CRY 5

Anonymous, доброе утро, мы катастрофически не успеваем собрать деньги на оплату серверов, помогите нам пожалуйста 5,10,15р., для нас важна любая помощь . В качестве благодарности мы отключим Вам всю рекламу на сайте (укажите свой ник в строку Ваше имя)!

×
  
Magnet ссылка

Короче / Сезон: 1 / Серии: 1-12 из 12 (Илья Фарфель) [2019, комедия, WEB-DL 720p] pb.wtf

Короче через торрент pb.wtf

Раздают: 1 [ 0 KB/s ]
Размер: 5.19 GB | Добавлен: 2 года 3 мес. назад | Торрент скачан:208 раз
Смотреть онлайн Короче | Скачать    Ребята, помогите собрать деньги на оплату серверов!!!

03-06-2019 01:22 Короче Скачать торрент  

Короче Год выпуска: 2019
Страна: Россия
Жанр: комедия
Продолжительность: ~ 00:25:00
Перевод: Не требуется
Субтитры: отсутствуют

Режиссер: Илья Фарфель



В ролях:

Борис Дергачев, Константин Шелягин, Дария Гомес, Николай Сороканов, Павел Демьянов, Дмитрий Овчинников, Денис Шаблий, Александра Кузенкина, Александр Якин, Марина Богатова

Описание:

Комедия по-быстрому. Голая правда о тридцатилетних, о которой не говорят вслух. Но не главный герой, этот парень говорит честно, быстро и вообще не думает. Он живёт от зарплаты до зарплаты, ходит в магазин со своим пакетом, хвастается айфоном перед друзьями и, конечно, безнадёжно влюблён.

Качество: WEB-DL 720p
Формат: MKV

Видео: 1280x720, (16:9), 25 fps, AVC MPEG-4 (x264), Baseline@L4 ~ 2600 kbps , 0.113 bit/pixel
Аудио: 48 kHz, АС3, 2/0 (L,R), ~192.00 kbps avg
скриншот  скриншот  скриншот  скриншот  

Общее
Уникальный идентификатор : 241321752803518708023521564362858824418 (0xB58CE105DB90EDB283C5A6FB8A3002E2)
Полное имя : C:\Koroche.(2019).WEB-DL.720p.ExKinoRay\Koroche.e01.(2019).WEB-DL.720p.ExKinoRay.mkv
Формат : Matroska
Версия формата : Version 2
Размер файла : 437 Мбайт
Продолжительность : 22 м. 14 с.
Режим общего битрейта : Постоянный
Общий поток : 2750 Кбит/сек
Дата кодирования : UTC 2019-06-02 22:08:38
Программа кодирования : mkvmerge v5.8.0 ('No Sleep / Pillow') built on Sep 2 2012 15:37:04
Библиотека кодирования : libebml v1.2.3 + libmatroska v1.3.0

Видео
Идентификатор : 1
Формат : AVC
Формат/Информация : Advanced Video Codec
Профиль формата : Baseline@L4
Настройки формата : 4 Ref Frames
Параметр CABAC формата : Нет
Параметр RefFrames формата : 4 кадра
Идентификатор кодека : V_MPEG4/ISO/AVC
Продолжительность : 22 м. 14 с.
Вид битрейта : Постоянный
Битрейт : 2600 Кбит/сек
Ширина : 1280 пикселей
Высота : 720 пикселей
Соотношение сторон : 16:9
Режим частоты кадров : Постоянный
Частота кадров : 25,000 кадров/сек
Стандарт вещания : PAL
Цветовое пространство : YUV
Субдискретизация насыщенности : 4:2:0
Битовая глубина : 8 бит
Тип развёртки : Прогрессивная
Бит/(Пиксели*Кадры) : 0.113
Размер потока : 398 Мбайт (91%)
Язык : Russian
Default : Да
Forced : Нет
Цветовой диапазон : Limited
Основные цвета : BT.709
Характеристики трансфера : BT.709
Коэффициенты матрицы : BT.709

Аудио
Идентификатор : 2
Формат : AC-3
Формат/Информация : Audio Coding 3
Коммерческое название : Dolby Digital
Идентификатор кодека : A_AC3
Продолжительность : 22 м. 14 с.
Вид битрейта : Постоянный
Битрейт : 192 Кбит/сек
Каналы : 2 канала
ChannelLayout : L R
Частота : 48,0 КГц
Частота кадров : 31,250 кадров/сек (1536 SPF)
Битовая глубина : 16 бит
Метод сжатия : С потерями
Размер потока : 30,5 Мбайт (7%)
Язык : Russian
ServiceKind/String : Complete Main
Default : Да
Forced : Нет

Внимание! Раздача ведётся путём добавления новых серий; при каждом добавлении создаётся новый торрент. Чтобы начать докачку новой серии,пользователям необходимо сделать следующее:
(1) остановить скачивание,
(2) удалить старый торрент у себя из клиента (старые серии удалять не надо),
(3) скачать новый торрент и запустить его у себя в клиенте вместо старого, при этом указать клиенту путь в старую папку куда и должнопроисходить скачивание новых серий.

Ваш клиент при этом должен произвести хеширование (проверку) старой папки (если не производит сам - помогите ему сделать это), и будет докачивать только те серии
которых у вас ещё нет. Старые серии при этом не удаляются, а продолжают раздаваться!

Eсли вы уже удалили старые серии, то предотвратить повторную закачку старых серий можно, отжав галочку в соответствующих местах при запуске нового торрента.

По возможности, желательно не удалять сpb.wtf



Скачать Короче через торрент https://i110.fastpic.ru/big/2019/0603/00/284206d96b3a4f4319e5f39f532b1200.jpg Скачать, смотреть онлайн Короче бесплантно в хорошем качестве Описание: Комедия по-быстрому. Голая правда о тридцатилетних, о которой не говорят вслух. Но не главный герой, этот парень говорит честно, ... 10 10 8
Торрент: Зарегистрирован [2019-06-20 00:33] · скачан: 208 раз
Статус: √ проверено
Размер: 5.19 GB
Как cкачать? Как скачать Короче через торрент | UTorrent

% Раздел Тема Автор DL S | L
TNT serials [ 9.7 GB ] Короче / Сезон: 1 / Серии: 1-12 из 12 [2019 WEB-DL 1080p] bober100 Скачать
2 | 0
TNT serials [ 3.44 GB ] Короче / Сезон: 1 / Серии: 1-12 из 12 [2019 WEBRip-AVC] bober100 Скачать
2 | 0
TNT serials [ 3.52 GB ] Короче / Сезон: 1 / Серии: 1-12 из 12 [2019 WEB-DLRip] bober100 Скачать
5 | 0

28-11-2019 20:33  

Отключить всю рекламу на сайте

    Дорогой пользователь! Огромная просьба, поблагодарите релизера, оцените раздачу и оставьте свои комментарий, если Вы скачали Короче через торрент бесплатно!
    Комментировать посты могут только пользователи прошедшие не сложную регистрацию
    Показать сообщения:    

    Короче через торрент
    Скачать бесплатно Короче
    Короче скачать торрент
    Короче смотреть онлайн
    Cкачать фильм Короче бесплатно
    Короче скачать торрент в хорошем качестве
    Короче смотреть онлайн бесплатно в хорошем качестве


    Вы не можете начинать темы
    Вы не можете отвечать на сообщения
    Вы не можете редактировать свои сообщения
    Вы не можете удалять свои сообщения
    Вы не можете голосовать в опросах
    Вы не можете прикреплять файлы к сообщениям
    Вы можете скачивать файлы