Ссылка на приватное зеркало нашего сайта всего за 1$. Внимание количество ограничено!!!

2 сезон

iTunes

1 сезон

1

iTunes

iTunes

iTunes

1 сезон

RePack

30

ИГРА 18+

pack

ВАЖНО

!!Акция!!

Alien_RageХит недели

RePack

MK11
pack

Забери бонус

RePack

jed

!!Акция!!

Alien_Rage

RePack

fifa19

RePack

Assassins Creed: Odyssey

RePack

NEED FOR SPEED™ PAYBACK

4 сезон

9 сезон

Бесстыжие 9 сезон

Все сериалы

все сериалы на PB.wtf

RePack

FAR CRY 5
  

Немедленное реагирование / Сезон: 1 / Серии: 1-10 из 10 (Владимир Койфман) [2019, Детектив, криминал, SATRip] pb.wtf

Немедленное реагирование через торрент pb.wtf

Раздают: 1 [ 0 KB/s ]
Размер: 6.29 GB | Добавлен: 1 год 4 мес. назад | Торрент скачан:117 раз
Скачать  

03-06-2019 12:45 Немедленное реагирование Скачать торрент  

Немедленное реагирование Год выпуска: 2019
Страна: Россия
Жанр: Детектив, криминал
Продолжительность: ~ 00:49:00 серия
Субтитры: отсутствуют

Режиссер: Владимир Койфман



В ролях:

Иван Батарев, Илья Алексеев, Максим Меркулов, Елена Радевич, Александр Конев, Анна Чурина, Виталий Коваленко, Роман Грибков, Денис Синявский, Андрей Гульнев, Георгий Маришин, Андрей Мокеев, Андрей Полищук, Андрей Аверков

Описание:

Капитан полиции Андрей Осокин — командир группы быстрого реагирования одного из районных отделов полиции Санкт-Петербурга. Вместе со своей группой — старшим лейтенантом Алексеем Зуевым и прапорщиком Борисом Порсом — он каждый день выезжает на задания и сталкивается со смертельной опасностью. Один из таких выездов заканчивается перестрелкой, в результате которой один из бойцов погибает, еще один тяжелое ранение. С места происшествия пропадает крупная сумма денег. Осокину удается найти пропавшие деньги, но перед ним встает тяжелый моральный выбор — сдать деньги в полицию или использовать их, чтобы помочь близким.

Качество: SATRip
Формат: AVI

Видео: XviD, ~ 1 705 Кбит/с, 720x400
Аудио: MP3, 2 ch, 192 Кбит/с
скриншот  скриншот  скриншот  скриншот  

Общее
Полное имя : D:\Nemedlennoe.reagirovanie.2019.XviD.SATRip.25Kuzmich\Nemedlennoe.reagirovanie.e01.XviD.SATRip.25Kuzmich.avi
Формат : AVI
Формат/Информация : Audio Video Interleave
Размер файла : 632 Мбайт
Продолжительность : 47 м. 45 с.
Общий поток : 1850 Кбит/сек
Программа кодирования : VirtualDubMod 1.5.10.3 (build 2550/release)
Библиотека кодирования : VirtualDubMod build 2550/release

Видео
Идентификатор : 0
Формат : MPEG-4 Visual
Профиль формата : Advanced Simple@L5
Параметр BVOP формата : 1
Параметр QPel формата : Нет
Параметр GMC формата : Без точки перехода
Параметр матрицы формата : Default (MPEG)
Идентификатор кодека : XVID
Идентификатор кодека/Подсказка : XviD
Продолжительность : 47 м. 45 с.
Битрейт : 1648 Кбит/сек
Ширина : 720 пикселей
Высота : 400 пикселей
Соотношение сторон : 16:9
Частота кадров : 25,000 кадров/сек
Цветовое пространство : YUV
Субдискретизация насыщенности : 4:2:0
Битовая глубина : 8 бит
Тип развёртки : Прогрессивная
Метод сжатия : С потерями
Бит/(Пиксели*Кадры) : 0.229
Размер потока : 563 Мбайт (89%)
Библиотека кодирования : XviD 73

Аудио
Идентификатор : 1
Формат : MPEG Audio
Версия формата : Version 1
Профиль формата : Layer 3
Режим : Joint stereo
Расширение режима : MS Stereo
Идентификатор кодека : 55
Идентификатор кодека/Подсказка : MP3
Продолжительность : 47 м. 45 с.
Вид битрейта : Постоянный
Битрейт : 192 Кбит/сек
Каналы : 2 канала
Частота : 48,0 КГц
Метод сжатия : С потерями
Размер потока : 65,6 Мбайт (10%)
Выравнивание : Соединение по промежуткам
Продолжительность промежутка : 40 мс. (1,00 видеокадр)
Время предзагрузки промежутка : 504 мс.
Библиотека кодирования : LAME3.99r
Настройки программы : -m j -V 4 -q 2 -lowpass 18.6 -b 192

Когда раздача ведётся путём добавления новых серий, при каждом добавлении создётся новый торрент. Чтобы начать докачку новой серии, пользователям необходимо сделать следующее:
(1) остановить скачивание,
(2) удалить старый торрент у себя из клиента (старые серии удалять не надо),
(3) скачать новый торрент и запустить его у себя в клиенте вместо старого, при этом указать клиенту путь в старую папку, куда и должно происходить скачивание новых серий.
Ваш клиент при этом должен произвести хеширование (проверку) старой папки (если не производит сам - помогите ему сделать это), и будет докачивать только те серии, которых у вас ещё нет. Старые серии при этом не удаляются, а продолжают раздаваться!
Eсли вы уже удалили старые серии, то предотвратить повторную закачку старых серий можно, отжав галочку в соответсвующих местах при запуске нового торрента. По возможности, желательно не удалять старые серии как можно дольше, чтобы релизёр не столько продолжал раздавать старые серии, а смог сконцентрироваться на новых.
pb.wtf



Скачать Немедленное реагирование через торрент http://img16.lostpic.net/2019/06/03/6e5f41efbf152985eb4278b152b1b9eb.jpg Скачать фильм Немедленное реагирование через торрент бесплантно в хорошем качестве Описание: Капитан полиции Андрей Осокин — командир группы быстрого реагирования одного из районных отделов полиции Санкт-Петербурга. Вместе ... 10 10 4
Торрент: Зарегистрирован [2019-06-07 15:44] · скачан: 117 раз
Статус: √ проверено
Размер: 6.29 GB
Как cкачать? Как скачать Немедленное реагирование через торрент | qTorrent

% Раздел Тема Автор DL S | L
Наши сериалы [ 7.51 GB ] Немедленное реагирование / Сезон: 1 / Серии: 1-10 из 10 [2019 WEBRip-AVC] bober100 Скачать
1 | 0
Наши сериалы [ 14.36 GB ] Немедленное реагирование / Сезон: 1 / Серии: 1-10 из 10 [2019 WEB-DL 720p] bober100 Скачать
1 | 0
Наши сериалы [ 21.1 GB ] Немедленное реагирование / Сезон: 1 / Серии: 1-10 из 10 [2019 WEB-DL 1080p] bober100 Скачать
1 | 0
Наши сериалы [ 6.83 GB ] Немедленное реагирование / Сезон: 1 / Серии: 1-10 из 10 [2019 WEB-DLRip] bober100 Скачать
1 | 0

28-11-2019 20:33  

Отключить всю рекламу на сайте

    Дорогой пользователь! Огромная просьба, поблагодарите релизера, оцените раздачу и оставьте свои комментарий, если Вы скачали Немедленное реагирование через торрент бесплатно! Внесите свою лепту в развитие PiratBit!
    Комментировать посты могут только пользователи прошедшие не сложную регистрацию
    Показать сообщения:    

    Немедленное реагирование через торрент
    Скачать бесплатно Немедленное реагирование
    Немедленное реагирование скачать торрент
    Немедленное реагирование смотреть онлайн
    Cкачать фильм Немедленное реагирование бесплатно
    Немедленное реагирование скачать торрент в хорошем качестве
    Немедленное реагирование смотреть онлайн бесплатно в хорошем качестве


    Вы не можете начинать темы
    Вы не можете отвечать на сообщения
    Вы не можете редактировать свои сообщения
    Вы не можете удалять свои сообщения
    Вы не можете голосовать в опросах
    Вы не можете прикреплять файлы к сообщениям
    Вы можете скачивать файлы