Ссылка на приватное зеркало нашего сайта всего за 1$. Внимание количество ограничено!!!

2 сезон

iTunes

1 сезон

1

2 сезон

2 сезон

iTunes

1 сезон

RePack

30

Новинка

ВАЖНО

ИГРА 18+

pack

RePack

MK11
pack

Забери бонус

RePack

jed

!!Акция!!

Alien_Rage

RePack

fifa19

RePack

Assassins Creed: Odyssey

RePack

NEED FOR SPEED™ PAYBACK

4 сезон

9 сезон

Бесстыжие 9 сезон

Все сериалы

все сериалы на PB.wtf

RePack

FAR CRY 5
  

Спасатели Малибу / Malibu Rescue / Сезон: 1 / Серии: 1-8 из 8 (Скотт МакЭбой, Шеннон Флинн, Сэвидж Стив Холланд) [2019, Приключения, WEBRip] MVO [Octopus] pb.wtf

Спасатели Малибу через торрент pb.wtf

Размер: 2.44 GB | Добавлен: 1 год 6 мес. назад | Торрент скачан:12 раз
Скачать  

03-06-2019 13:36 Спасатели Малибу Скачать торрент  

Спасатели Малибу / Malibu Rescue Год выпуска: 2019
Страна: США
Жанр: Приключения
Продолжительность: ~ 00:25:00 (Серия)
Перевод: Любительский (многоголосый) | Octopus
Субтитры: отсутствуют

Режиссер: Скотт МакЭбой, Шеннон Флинн, Сэвидж Стив Холланд

rating

В ролях:

Эбби Доннелли, Рикардо Уртадо, Бреанна Идея, Алкойя Брансон, Джеки Р. Джейкобсон, Камерон Энджелс, Джереми Ховард, Картик Эш, Райдер Блэкберн, Эрин Фланнери

Описание:

Целеустремленные юные спасатели соревнуются с местными детьми-снобами за право занять спасательную вышку на пляже в Малибу.

Качество: WEBRip
Формат: AVI

Видео: XviD, ~ 1500 Кбит/с, 720x360
Аудио: Русский, (AC3, 2 ch, 384 Кбит/с)
скриншот  скриншот  скриншот  

Общее
Полное имя : D:\Malibu.Rescue.S01.400p.Octopus\Malibu.Rescue.S01E01.400p.Octopus.avi
Формат : AVI
Формат/Информация : Audio Video Interleave
Размер файла : 307 Мбайт
Продолжительность : 23 м. 41 с.
Общий поток : 1810 Кбит/сек
Программа кодирования : VirtualDubMod 1.5.10.3 | www.virtualdub-fr.org || (build 2550/release)
Библиотека кодирования : VirtualDubMod build 2550/release

Видео
Идентификатор : 0
Формат : MPEG-4 Visual
Профиль формата : Advanced Simple@L5
Параметр BVOP формата : 2
Параметр QPel формата : Нет
Параметр GMC формата : Без точки перехода
Параметр матрицы формата : Default (H.263)
Идентификатор кодека : XVID
Идентификатор кодека/Подсказка : XviD
Продолжительность : 23 м. 41 с.
Битрейт : 1416 Кбит/сек
Ширина : 720 пикселей
Высота : 360 пикселей
Соотношение сторон : 2,000
Частота кадров : 23,976 (23976/1000) кадра/сек
Цветовое пространство : YUV
Субдискретизация насыщенности : 4:2:0
Битовая глубина : 8 бит
Тип развёртки : Прогрессивная
Метод сжатия : С потерями
Бит/(Пиксели*Кадры) : 0.228
Размер потока : 240 Мбайт (78%)
Библиотека кодирования : XviD 1.2.1 (UTC 2008-12-04)

Аудио
Идентификатор : 1
Формат : AC-3
Формат/Информация : Audio Coding 3
Расширение режима : CM (complete main)
Параметр Endianness формата : Big
Идентификатор кодека : 2000
Продолжительность : 23 м. 41 с.
Вид битрейта : Постоянный
Битрейт : 384 Кбит/сек
Каналы : 2 канала
Расположение каналов : Front: L R
Частота : 48,0 КГц
Частота кадров : 31,250 кадров/сек (1536 spf)
Метод сжатия : С потерями
Размер потока : 65,1 Мбайт (21%)
Выравнивание : Разделение по промежуткам
Продолжительность промежутка : 42 мс. (1,00 видеокадр)
Время предзагрузки промежутка : 500 мс.

pb.wtf



Скачать Спасатели Малибу через торрент https://d.radikal.ru/d27/1906/c5/5bd2ef20cf77.jpg Скачать фильм Спасатели Малибу через торрент бесплантно в хорошем качестве Описание: Целеустремленные юные спасатели соревнуются с местными детьми-снобами за право занять спасательную вышку на пляже в ... 10 10 2
Торрент: Зарегистрирован [2019-06-03 13:36] · скачан: 12 раз
Статус: √ проверено
Размер: 2.44 GB
Как cкачать? Как скачать Спасатели Малибу через торрент | qTorrent

% Раздел Тема Автор DL S | L
Зарубежные сериалы [ 8.51 GB ] Спасатели Малибу / Malibu Rescue / Сезон: 1 / Серии: 1-8 из 8 [2019 WEBRip 1080p] MVO [Octopus] bober100 Скачать
1 | 0
Зарубежные сериалы [ 7.28 GB ] Спасатели Малибу / Malibu Rescue / Сезон: 1 / Серии: 1-8 из 8 [2019 WEBRip 720p] MVO [Octopus] bober100 Скачать
1 | 0

28-11-2019 20:33  

Отключить всю рекламу на сайте

    Дорогой пользователь! Огромная просьба, поблагодарите релизера, оцените раздачу и оставьте свои комментарий, если Вы скачали Спасатели Малибу через торрент бесплатно! Внесите свою лепту в развитие PiratBit!
    Комментировать посты могут только пользователи прошедшие не сложную регистрацию
    Показать сообщения:    

    Спасатели Малибу через торрент
    Скачать бесплатно Спасатели Малибу
    Спасатели Малибу скачать торрент
    Спасатели Малибу смотреть онлайн
    Cкачать фильм Спасатели Малибу бесплатно
    Спасатели Малибу скачать торрент в хорошем качестве
    Спасатели Малибу смотреть онлайн бесплатно в хорошем качестве


    Вы не можете начинать темы
    Вы не можете отвечать на сообщения
    Вы не можете редактировать свои сообщения
    Вы не можете удалять свои сообщения
    Вы не можете голосовать в опросах
    Вы не можете прикреплять файлы к сообщениям
    Вы можете скачивать файлы