Ссылка на приватное зеркало нашего сайта всего за 1$. Внимание количество ограничено!!!

2 сезон

iTunes

1 сезон

1

2 сезон

2 сезон

iTunes

1 сезон

RePack

30

Ultimate

ВАЖНО

ИГРА 18+

pack

RePack

MK11
pack

Забери бонус

RePack

jed

!!Акция!!

Alien_Rage

RePack

fifa19

RePack

Assassins Creed: Odyssey

RePack

NEED FOR SPEED™ PAYBACK

4 сезон

9 сезон

Бесстыжие 9 сезон

Все сериалы

все сериалы на PB.wtf

RePack

FAR CRY 5
  

Могучие рейнджеры / Power Rangers (Дин Израэлайт) [2017, Фантастика, боевик, приключения, WEBRip 1080p, (Open Matte)] [Локализованная версия] DUB [Лицензия] pb.wtf

Могучие рейнджеры через торрент pb.wtf

Размер: 5.03 GB | Добавлен: 1 год 5 мес. назад | Торрент скачан:78 раз
Скачать  

03-06-2019 17:06 Могучие рейнджеры Скачать торрент  

Могучие рейнджеры / Power RangersЛокализованная версия
Год выпуска: 2017
Страна: США, Гонконг, Япония, Мексика, Канада, Новая Зеландия
Жанр: Фантастика, боевик, приключения
Продолжительность: 02:03:58
Перевод: Дублированный | Лицензия
Субтитры:Русские (Forced (hardsub), Full), Английские (Full)

Режиссер: Дин Израэлайт

rating

В ролях:

Дакре Монтгомери (Jason (Red Ranger)), Наоми Скотт (Kimberly (Pink Ranger)), АрДжей Сайлер (Billy (Blue Ranger)), Луди Юэнь (Zack (Black Ranger)), Бекки Джи (Trini (Yellow Ranger)), Элизабет Бэнкс (Rita Repulsa), Брайан Крэнстон (Zordon), Билл Хейдер (Alpha 5, озвучка), Мэтт Шайвли (Damo), Коуди Кирсли (Hawkeye), Дэвид Денман (Sam Scott), Роберт Молони (Ted Hart)
Описание:

Пять обычных старшеклассников узнают, что их маленький город Энджел Гроув и весь мир находятся на грани уничтожения инопланетной угрозой. Избранные судьбой наши герои быстро понимают, что они единственные, кто может спасти планету.

Качество: WEBRip 1080p | Open Matte
Формат: MKV

Видео: AVC/H264, 1920x1080, 23.976 fps, 4789 kbps
Аудио#1: русский (AC3, 6 ch, 48 kHz, 448 kbps) |Дубляж|
Аудио#2: английский (AC3, 6 ch, 48 kHz, 448 kbps) |
скриншот  скриншот  скриншот  

скриншот  скриншот  скриншот  

General
UniqueID : 233947239300670915229182138493306687339 (0xB000996F7FBAB7ABA636E57911CC4F6B)
Complete name : D:Power Rangers (2017) Open Matte.mkv
Format : Matroska
File size : 5.03 GiB
Duration : 2h 4mn
Overall bit rate : 5 800 Kbps
Encoded date : UTC 2019-04-03 16:47:30
Writing application : mkvmerge v8.3.0 ('Over the Horizon') 32bit
Writing library : libebml v1.3.1 + libmatroska v1.4.2

Video
ID : 1
Format : AVC
Format/Info : Advanced Video Codec
Format profile : High@L4.0
Format settings, CABAC : Yes
Format settings, ReFrames : 4 frames
Format settings, GOP : M=7, N=16
Codec ID : V_MPEG4/ISO/AVC
Duration : 2h 4mn
Bit rate : 4 789 Kbps
Nominal bit rate : 5 120 Kbps
Width : 1 920 pixels
Height : 1 080 pixels
Display aspect ratio : 16:9
Frame rate mode : Variable
Frame rate : 23.976 fps
Color space : YUV
Chroma subsampling : 4:2:0
Bit depth : 8 bits
Scan type : Progressive
Bits/(Pixel*Frame) : 0.096
Stream size : 4.15 GiB (83%)
Writing library : x264 core 142
Encoding settings : cabac=1 / ref=3 / deblock=1:0:0 / analyse=0x3:0x113 / me=hex / subme=7 / psy=1 / psy_rd=1.00:0.00 / mixed_ref=1 / me_range=16 / chroma_me=1 / trellis=1 / 8x8dct=1 / cqm=0 / deadzone=21,11 / fast_pskip=1 / chroma_qp_offset=-2 / threads=108 / lookahead_threads=8 / sliced_threads=0 / nr=0 / decimate=1 / interlaced=0 / bluray_compat=0 / constrained_intra=0 / bframes=6 / b_pyramid=2 / b_adapt=1 / b_bias=0 / direct=1 / weightb=1 / open_gop=0 / weightp=2 / keyint=50 / keyint_min=26 / scenecut=0 / intra_refresh=0 / rc_lookahead=40 / rc=2pass / mbtree=1 / bitrate=5120 / ratetol=1.0 / qcomp=0.60 / qpmin=0 / qpmax=69 / qpstep=4 / cplxblur=20.0 / qblur=0.5 / vbv_maxrate=7680 / vbv_bufsize=20480 / nal_hrd=none / filler=0 / ip_ratio=1.40 / aq=1:1.00
Language : Russian

Audio #1
ID : 2
Format : AC-3
Format/Info : Audio Coding 3
Mode extension : CM (complete main)
Codec ID : A_AC3
Duration : 2h 4mn
Bit rate mode : Constant
Bit rate : 448 Kbps
Channel(s) : 6 channels
Channel positions : Front: L C R, Side: L R, LFE
Sampling rate : 48.0 KHz
Bit depth : 16 bits
Compression mode : Lossy
Video delay : 24ms
Stream size : 398 MiB (8%)
Language : Russian

Audio #2
ID : 3
Format : AC-3
Format/Info : Audio Coding 3
Mode extension : CM (complete main)
Codec ID : A_AC3
Duration : 2h 4mn
Bit rate mode : Constant
Bit rate : 448 Kbps
Channel(s) : 6 channels
Channel positions : Front: L C R, Side: L R, LFE
Sampling rate : 48.0 KHz
Bit depth : 16 bits
Compression mode : Lossy
Video delay : 24ms
Stream size : 398 MiB (8%)
Language : English

Text #1
ID : 4
Format : UTF-8
Codec ID : S_TEXT/UTF8
Codec ID/Info : UTF-8 Plain Text
Language : Russian

Text #2
ID : 5
Format : UTF-8
Codec ID : S_TEXT/UTF8
Codec ID/Info : UTF-8 Plain Text
Language : English

pb.wtf



Скачать Могучие рейнджеры через торрент http://s61.radikal.ru/i174/1710/26/c725f5255b0e.jpg Скачать фильм Могучие рейнджеры через торрент бесплантно в хорошем качестве Описание: Пять обычных старшеклассников узнают, что их маленький город Энджел Гроув и весь мир находятся на грани уничтожения инопланетной ... 8.5 10 6
Торрент: Зарегистрирован [2019-06-03 17:06] · скачан: 78 раз
Статус: √ проверено
Размер: 5.03 GB
Как cкачать? Как скачать Могучие рейнджеры через торрент | qTorrent

% Раздел Тема Автор DL S | L
Ultra HD (UHD: 2K, 4K, 8K) — видео сверхвысокой чёткости [ 46.1 GB ] Могучие рейнджеры / Power Rangers [2017 UHD BDRemux 2160p] + AVO [Л. Володарский] sheker187 Скачать
1 | 0
Ultra HD (UHD: 2K, 4K, 8K) — видео сверхвысокой чёткости [ 41.44 GB ] Могучие рейнджеры / Power Rangers [2017 UHD BDRemux 2160p] [] sheker187 Скачать
1 | 0
Фильмы (Blu-ray, BD-Remux, HDDVD) [ 26.49 GB ] Могучие рейнджеры / Power Rangers [2017 BD Remux 1080p] AVO [Володарский] +DUB [] bober100 Скачать
1 | 0
Фильмы [HD 720p, 1080p] (Хороший звук DUB, MVO) [ 5.07 GB ] Могучие рейнджеры / Power Rangers [2017 BDRip 1080p [HEVC] ()] Мичман37 Скачать
1 | 0
Фильмы 2017 [DVDrip, WEB-DLRip, HDrip] (DUB, MVO) [ 2.18 GB ] Могучие рейнджеры / Power Rangers [2017 BDRip] - [] Twi7ter Скачать
1 | 0
Фильмы 2017 [DVDrip, WEB-DLRip, HDrip] (DUB, MVO) [ 1.46 GB ] Могучие рейнджеры / Power Rangers [2017 BDRip] - [] Twi7ter Скачать
2 | 0
Фильмы 2017 [DVDrip, WEB-DLRip, HDrip] (DUB, MVO) [ 744 MB ] Могучие рейнджеры / Power Rangers [2017 Гонконг Япония BDRip-AVC] sokol_ok Скачать
2 | 0

28-11-2019 20:33  

Отключить всю рекламу на сайте

03-06-2019 19:23 Могучие рейнджеры Скачать торрент  

Ходил в кино на него, редкое говно, не тратьте своей время. Автору за релиз Спасибо!pb.wtf



04-06-2019 16:10 Могучие рейнджеры Скачать торрент  

ну детский же фильм, ну сразу ясно было
Когда взрослый смотрит фильм для детей лет 12ти- странно, что он ждет каких то откровений.pb.wtf



23-06-2019 14:43 Могучие рейнджеры Скачать торрент  

хоть бы кто айвишку сделалpb.wtf



    Дорогой пользователь! Огромная просьба, поблагодарите релизера, оцените раздачу и оставьте свои комментарий, если Вы скачали Могучие рейнджеры через торрент бесплатно! Внесите свою лепту в развитие PiratBit!
    Комментировать посты могут только пользователи прошедшие не сложную регистрацию
    Показать сообщения:    

    Могучие рейнджеры через торрент
    Скачать бесплатно Могучие рейнджеры
    Могучие рейнджеры скачать торрент
    Могучие рейнджеры смотреть онлайн
    Cкачать фильм Могучие рейнджеры бесплатно
    Могучие рейнджеры скачать торрент в хорошем качестве
    Могучие рейнджеры смотреть онлайн бесплатно в хорошем качестве


    Вы не можете начинать темы
    Вы не можете отвечать на сообщения
    Вы не можете редактировать свои сообщения
    Вы не можете удалять свои сообщения
    Вы не можете голосовать в опросах
    Вы не можете прикреплять файлы к сообщениям
    Вы можете скачивать файлы