Ссылка на приватное зеркало нашего сайта всего за 1$. Внимание количество ограничено!!!

2 сезон

iTunes

1 сезон

1

iTunes

iTunes

iTunes

1 сезон

RePack

30

ИГРА 18+

pack

ВАЖНО

!!Акция!!

Alien_RageХит недели

RePack

MK11
pack

Забери бонус

RePack

jed

!!Акция!!

Alien_Rage

RePack

fifa19

RePack

Assassins Creed: Odyssey

RePack

NEED FOR SPEED™ PAYBACK

4 сезон

9 сезон

Бесстыжие 9 сезон

Все сериалы

все сериалы на PB.wtf

RePack

FAR CRY 5
  

Свадьбы и разводы / Сезон: 1 / Серии: 1-12 из 12 (Вардан Акопян) [2019, Мелодрама, HDTV 1080i] pb.wtf

Свадьбы и разводы через торрент pb.wtf

Размер: 26.97 GB | Добавлен: 1 год 4 мес. назад | Торрент скачан:1 раз
Скачать  

03-06-2019 18:28 Свадьбы и разводы Скачать торрент  

Свадьбы и разводы Год выпуска: 2019
Страна: Россия
Жанр: Мелодрама
Продолжительность: ~ 00:49:00 серия
Субтитры: отсутствуют

Режиссер: Вардан Акопян



В ролях:

Антон Хабаров, Елена Николаева (II), Антон Денисенко, Рина Гришина, Данила Шевченко, Павел Ворожцов, Ирина Темичева, Анастасия Панина, Владимир Симонов, Олег Комаров (II), Ольга Тумайкина, Ирина Розанова, Любовь Германова, Анна Каменкова, Сергей Юшкевич, Алексей Гришин, Степан Девонин, Дмитрий Прокофьев, Александр Ревенко, Лада Чуровская, Алёна Коломина, Ольга Торощина, Анастасия Теплинская, Тата Хачатрян, Кирилл Иванов, Анастасия Куимова, Надя Славецкая, Евгения Розанова, Анна Донченко, Илья Исаев

Описание:

Женя и Марк работают в одном офисном центре. Она - владелица небольшого агентства по организации свадеб, настоящая брачная фея, и, кстати, скоро сама собирается замуж. Он – высококлассный адвокат, специализирующийся на разводах и разделе имущества. Каждый из них искренне любит свое дело и уверен, что что помогает людям стать счастливее. Однажды Женя и Марк знакомятся, и... Теперь Женя не так уверена, что хочет замуж за своего идеального Сашу. А Марк, похоже, встретил девушку, ради которой мог бы пересмотреть свои принципы убежденного одиночки. Каждая новая пара, будь то будущие молодожены у Жени, или будущие "бывшие" у Марка, подкидывает им новые темы для размышлений и споров. Удастся ли нашим героям понять друг друга и поверить, что любовь важнее принципов?

Качество: HDTV 1080i
Формат: TS

Видео: AVC, ~ 5800 Кбит/с, 1920x1080, 25 кадр/с
Аудио#1: Русский (AC3, 6 ch, 384 Кбит/с)
Аудио#2: Русский (MP2, 2 ch, 192 Кбит/с)
скриншот  скриншот  скриншот  скриншот  

Общее
Идентификатор : 1 (0x1)
Полное имя : D:ЗаписьSvadby i razvody.HDTV(1080i).GeneralFilm2.Svadby i razvody.HDTV(1080i).GeneralFilm.ts
Формат : MPEG-TS
Размер файла : 2,28 Гбайт
Продолжительность : 48 м. 16 с.
Режим общего битрейта : Переменный
Общий поток : 6774 Кбит/сек

Видео
Идентификатор : 1904 (0x770)
Идентификатор меню : 80 (0x50)
Формат : AVC
Формат/Информация : Advanced Video Codec
Профиль формата : High@L4
Параметр CABAC формата : Да
Параметр ReFrames формата : 3 кадра
Идентификатор кодека : 27
Продолжительность : 48 м. 15 с.
Битрейт : 5858 Кбит/сек
Ширина : 1920 пикселей
Высота : 1080 пикселей
Соотношение сторон : 16:9
Частота кадров : 25,000 кадров/сек
Стандарт вещания : Component
Цветовое пространство : YUV
Субдискретизация насыщенности : 4:2:0
Битовая глубина : 8 бит
Тип развёртки : Чересстрочная
Метод сохранения типа развёртки : Раздельные поля
Порядок развёртки : Верхнее поле первое
Бит/(Пиксели*Кадры) : 0.113
Размер потока : 1,97 Гбайт (86%)
Цветовой диапазон : Limited
Основные цвета : BT.709
Характеристики трансфера : BT.709
Коэффициенты матрицы : BT.709

Аудио #1
Идентификатор : 2904 (0xB58)
Идентификатор меню : 80 (0x50)
Формат : AC-3
Формат/Информация : Audio Coding 3
Расширение режима : CM (complete main)
Параметр Endianness формата : Big
Идентификатор кодека : 6
Продолжительность : 48 м. 15 с.
Вид битрейта : Постоянный
Битрейт : 384 Кбит/сек
Каналы : 6 каналов
Расположение каналов : Front: L C R, Side: L R, LFE
Частота : 48,0 КГц
Частота кадров : 31,250 кадров/сек (1536 spf)
Битовая глубина : 16 бит
Метод сжатия : С потерями
Задержка видео : -120 мс.
Размер потока : 133 Мбайт (6%)
Язык : Russian

Аудио #2
Идентификатор : 2905 (0xB59)
Идентификатор меню : 80 (0x50)
Формат : MPEG Audio
Версия формата : Version 1
Профиль формата : Layer 2
Идентификатор кодека : 3
Продолжительность : 48 м. 15 с.
Вид битрейта : Постоянный
Битрейт : 192 Кбит/сек
Каналы : 2 канала
Частота : 48,0 КГц
Метод сжатия : С потерями
Задержка видео : -120 мс.
Размер потока : 66,3 Мбайт (3%)
Язык : Russian

Раздача ведётся путём добавления новых серий, при каждом добавлении создаётся новый торрент. Чтобы начать докачку новой серии, пользователям необходимо сделать следующее:

- Остановить скачивание.
- Удалить старый торрент у себя из клиента (старые серии удалять не надо).
- Скачать новый торрент и запустить его у себя в клиенте вместо старого, при этом указать клиенту путь в старую папку куда и должно происходить скачивание новых серий.

Ваш клиент при этом должен произвести хеширование (проверку) старой папки (если не производит сам - помогите ему сделать это), и будет докачивать только те серии которых у вас ещё нет. Старые серии при этом не удаляются, а продолжают раздаваться!
Если вы уже удалили старые серии, то предотвратить повторную закачку старых серий можно, отжав галочку в соответствующих местах при запуске нового торрента. По возможности, желательно не удалять старые серии как можно дольше, чтобы релизер не столько продолжал раздавать старые серии, а смог сконцентрироваться на новых.
pb.wtf



Скачать Свадьбы и разводы через торрент http://img15.lostpic.net/2019/06/03/88fd4a1a879c46b3467dbf89831148b0.jpg Скачать фильм Свадьбы и разводы через торрент бесплантно в хорошем качестве Описание: Женя и Марк работают в одном офисном центре. Она - владелица небольшого агентства по организации свадеб, настоящая брачная фея, ... 10 10 3
Торрент: Зарегистрирован [2019-06-13 16:46] · скачан: 1 раз
Статус: √ проверено
Размер: 26.97 GB
Как cкачать? Как скачать Свадьбы и разводы через торрент | qTorrent

% Раздел Тема Автор DL S | L
Наши сериалы [ 15.33 GB ] Свадьбы и разводы / Сезон: 1 / Серии: 1-12 из 12 [2019 Мело HDTVRip 720p] bober100 Скачать
1 | 0
Наши сериалы [ 7.54 GB ] Свадьбы и разводы / Сезон: 1 / Серии: 1-12 из 12 [2019 Мело WEBRip-AVC] bober100 Скачать
1 | 0
Наши сериалы [ 7.57 GB ] Свадьбы и разводы / Сезон: 1 / Серии: 1-12 из 12 [2019 Мело WEB-DLRip] bober100 Скачать
1 | 0
Наши сериалы [ 7.03 GB ] Свадьбы и разводы / Сезон: 1 / Серии: 1-12 из 12 [2019 Мело SATRip] bober100 Скачать
1 | 0

28-11-2019 20:33  

Отключить всю рекламу на сайте

    Дорогой пользователь! Огромная просьба, поблагодарите релизера, оцените раздачу и оставьте свои комментарий, если Вы скачали Свадьбы и разводы через торрент бесплатно! Внесите свою лепту в развитие PiratBit!
    Комментировать посты могут только пользователи прошедшие не сложную регистрацию
    Показать сообщения:    

    Свадьбы и разводы через торрент
    Скачать бесплатно Свадьбы и разводы
    Свадьбы и разводы скачать торрент
    Свадьбы и разводы смотреть онлайн
    Cкачать фильм Свадьбы и разводы бесплатно
    Свадьбы и разводы скачать торрент в хорошем качестве
    Свадьбы и разводы смотреть онлайн бесплатно в хорошем качестве


    Вы не можете начинать темы
    Вы не можете отвечать на сообщения
    Вы не можете редактировать свои сообщения
    Вы не можете удалять свои сообщения
    Вы не можете голосовать в опросах
    Вы не можете прикреплять файлы к сообщениям
    Вы можете скачивать файлы