Достать ножи: Стеклянная луковица

MVO

Добыча

Дубляж

Уэнсдэй

1 сезон

Тор

Дубляж

13 клиническая

1 сезон

Жестокая ночь

MVO

Одни из нас

1 сезон

Deluxe

pack

Рекомендуем

30

Пиратка

ВАЖНО

ВАЖНО

Ghostwire

Пиратка

jed

RePack

nioh2

RePack

RDR2

RePack

NEED FOR SPEED™ PAYBACK

RePack

скачать торрент

Кинопоиск HD

Острые козырьки 6 сезон

6 сезон

FAR CRY 6

RePack

скачать торрент

Лицензия

скачать торрент

MVO

1

1 сезон

скачать торрент

1 сезон

скачать торрент

Лицензия

  

Игра Престолов / Game of Thrones / Сезон: 8 / Серии: 1-6 из 6 (Алан Тейлор, Даниэль Минахан, Дэвид Наттер) [2019, фэнтези, драма, приключения, WEB-DLRip ] Дубляж - [Кравец]

Игра Престолов через торрент pb.wtf

Раздают: 1 [ 0 KB/s ]
Размер: 7.41 GB | Добавлен: 3 года 7 мес. назад | Торрент скачан:969 раз
Смотреть онлайн | Скачать | Поддержите нас   

03-06-2019 19:53 Игра Престолов Скачать торрент  

Игра Престолов / Game of Thrones

Год выпуска: 2019
Страна: США, Великобритания, Bighead Littlehead, Created By, Generator Entertainment, Home Box Office (HBO)
Жанр: драма, фэнтези, приключения, экранизация
Продолжительность: 2 x ~ 00:55:00, 4 х ~ 01:20:00
Перевод: Профессиональный (полное дублирование) [студия Кравец Рекордз по заказу Amedia]
Субтитры: Русские форсированные (стилизованные, на надписи и прочее) - вшитые
Режиссер: Джереми Подесва, Дэниэл Сакхайм, Джек Бендер, Марк Майлод, Мигель Сапочник
В ролях: Питер Динклэйдж, Иэн Глен, Николай Костер-Валдау, Лина Хиди, Эмилия Кларк, Кит Харингтон, Лиам Каннингэм, Кэрис ван Хаутен, Натали Дормер, Индира Варма, Софи Тёрнер, Мэйси Уильямс, Конлет Хилл, Элфи Оуэн-Аллен, Гвендолин Кристи, Джонатан Прайс, Майкл МакЭлхаттон, Иван Реон, Джозеф Науфаху, Ханна Уэддингхэм, Розабелла Лауренти Селлерс, Дэниэл Портман, Фэй Марсей, Оуэн Тил
Описание:
В основу сериала Игра престолов (Game of Thrones) положена серия романов Джорджа Мартина «Песнь Льда и Огня». Сплетения жестоких и изощренных интриг, отличная игра актеров, будоражащие воображение съемки, это те причины, по которым стоит смотреть сериал. Все события разворачиваются вокруг Семи королевств, находящихся на несуществующем континенте Вестерос. В этом мире подходит к концу время счастья и благоденствия, и вокруг Железного трона плетутся интриги, и зреет заговор. Ведь в мире, где каждый рвется к власти, по-другому быть не может. Конфликт между королевскими семьями приводит к войне. За этим всем никто не замечает возрождения великого зла на Севере, и пока только Стена защищает людей живущих к югу от нее. Но даже здесь находится место благородству и состраданию.

Рейтинг:
rating
Качество: WEB-DLRip | исх. Game.of.Thrones.S08.WEB-DL.1080p.Rus.Ukr.Eng |
Формат: AVI
Видео кодек: XviD
Аудио кодек: AC3
Видео: 688x384 (1.79:1), 23.976 fps, XviD build 73 ~1980 kbps avg, 0.31 bit/pixel
Аудио: 48 kHz, AC3 Dolby Digital, 3/2 (L,C,R,l,r) + LFE ch, ~384 kbps - RUS |

Семпл
скриншот   скриншот   скриншот   скриншот  
скриншот   скриншот   скриншот   скриншот  
General
Complete name : D:\Igra.Prestolov.S08.WEB-DLRip_ExKinoRay_by_Twi7ter\Igra.Prestolov.S08E01.WEB-DLRip_ExKinoRay_by_Twi7ter.avi
Format : AVI
Format/Info : Audio Video Interleave
File size : 947 MiB
Duration : 55 min 45 s
Overall bit rate : 2 374 kb/s
Movie name : Igra.Prestolov.S08E01.WEB-DLRip_ExKinoRay_by_Twi7ter
Director : Twi7ter
Genre : Fantasy/Adventure/Drama
Original source form/Name : TV-Serie

Video
ID : 0
Format : MPEG-4 Visual
Format profile : Advanced [email protected]
Format settings : BVOP2 / Custom Matrix
Format settings, BVOP : 2
Format settings, QPel : No
Format settings, GMC : No warppoints
Format settings, Matrix : Custom
Codec ID : XVID
Codec ID/Hint : XviD
Duration : 55 min 45 s
Bit rate : 1 981 kb/s
Width : 688 pixels
Height : 384 pixels
Display aspect ratio : 16:9
Frame rate : 23.976 (24000/1001) FPS
Color space : YUV
Chroma subsampling : 4:2:0
Bit depth : 8 bits
Scan type : Progressive
Compression mode : Lossy
Bits/(Pixel*Frame) : 0.313
Stream size : 790 MiB (83%)
Writing library : XviD 73

Audio
ID : 1
Format : AC-3
Format/Info : Audio Coding 3
Commercial name : Dolby Digital
Codec ID : 2000
Duration : 55 min 45 s
Bit rate mode : Constant
Bit rate : 384 kb/s
Channel(s) : 6 channels
Channel layout : L R C LFE Ls Rs
Sampling rate : 48.0 kHz
Frame rate : 31.250 FPS (1536 SPF)
Bit depth : 16 bits
Compression mode : Lossy
Stream size : 153 MiB (16%)
Alignment : Aligned on interleaves
Interleave, duration : 42 ms (1.00 video frame)
Interleave, preload duration : 512 ms
Service kind : Complete Main
Релиз: & exkinoray

Финансовая поддержка релизера



Скачать Игра Престолов через торрент http://img16.lostpic.net/2019/06/03/f76d8bb4db84021694ec0326b0c453ac.png Скачать, смотреть онлайн Игра Престолов бесплантно в хорошем качестве Описание: В основу сериала Игра престолов (Game of Thrones) положена серия романов Джорджа Мартина «Песнь Льда и Огня». Сплетения жестоких ... 9.6 10 17
Info! Золотая раздача, скачанное не засчитывается.
Торрент: Зарегистрирован [2019-06-03 19:53] · скачан: 969 раз
Статус: √ проверено
Размер: 7.41 GB
Как cкачать? Как скачать Игра Престолов через торрент | UTorrent

% Раздел Тема Автор DL S | L
Игра престолов [ 109.58 GB ] Игра престолов / Game of Thrones / Сезон: 1-8 из 8 / Серии: 1-73 из 73 | DUB | DLRip 1080p sheker187 Скачать
2 | 7
Игра престолов [ 322.59 GB ] Игра престолов / Game of Thrones / Сезон: 1-8 из 8 / Серии: 1-73 из 73 | LostFilm | DLRip 1080p sheker187 Скачать
1 | 2
Игра престолов [ 297.23 GB ] Игра престолов / Game of Thrones / Сезон: 1-7 из 7 / Серии: 1-67 из 67 | LostFilm | 1080p sheker187 Скачать
2 | 0
Игра престолов [ 7.26 GB ] Игра Престолов / Game of Thrones / Сезон: 8 / Серии: 1-6 из 6 | Лицензия | BDRip Twi7ter Скачать
12 | 2
Игра престолов [ 25.89 GB ] Игра престолов / Game of Thrones / Сезон: 8 / Серии: 1-6 из 6 | Amedia | 1080p bober100 Скачать
1 | 0
Игра престолов [ 13.35 GB ] Игра престолов / Game of Thrones / Сезон: 8 / Серии: 1-6 из 6 | Amedia 5.1 | 720p bober100 Скачать
1 | 0
Игра престолов [ 7.71 GB ] Игра Престолов / Game of Thrones / Сезон: 8 / Серии: 1-6 из 6 | | DLRip-AVC Enigma2010 Скачать
3 | 0

28-11-2019 20:33  


Отключить вcю реклaмy на сайте, в т.ч. и в плеере онлайн просмотра!

04-06-2019 06:19 Игра Престолов Скачать торрент  

всем доброго времени. а есть с гоблинским переводом? как по мне, так 8 сезон надо только с таким переводом смотреть



    Дорогой пользователь! Огромная просьба, поблагодарите релизера, оцените раздачу и оставьте свои комментарий, если Вы скачали Игра Престолов через торрент бесплатно!!
    Комментировать посты могут только пользователи прошедшие не сложную регистрацию
    Показать сообщения:    


    Игра Престолов через торрент
    Скачать бесплатно Игра Престолов
    Игра Престолов скачать торрент
    Игра Престолов смотреть онлайн
    Cкачать фильм Игра Престолов бесплатно
    Игра Престолов скачать торрент в хорошем качестве
    Игра Престолов смотреть онлайн бесплатно в хорошем качестве
    Вы не можете начинать темы
    Вы не можете отвечать на сообщения
    Вы не можете редактировать свои сообщения
    Вы не можете удалять свои сообщения
    Вы не можете голосовать в опросах
    Вы не можете прикреплять файлы к сообщениям
    Вы можете скачивать файлы
    Игра Престолов / Game of Thrones / Сезон: 8 / Серии: 1-6 из 6 [2019, фэнтези, драма, приключения, WEB-DLRip ] Дубляж - [Кравец] смотреть онлайн, скачать торрент picoco.icu