Ссылка на приватное зеркало всего за 1$. Внимание количество ограничено!!!

OK

1+1

iTunes

мы

OK

1

WEB-DLRip

Джокер

Пифагор

Ведьмак / The Witcher сериал

Лицензия

ПШазам

ОК

Оно 2

iTunes

30
pack

Вам бонус

ВАЖНО

!!Акция!!

Alien_RageХит недели

RePack

Resident Evil 21

ИГРА 18+

pack

RePack

jed

RePack

fifa19

RePack

Assassins Creed: Odyssey

RePack

NEED FOR SPEED™ PAYBACK

4 сезон

9 сезон

Бесстыжие 9 сезон

Все сериалы

все сериалы на PB.wtf

RePack

FAR CRY 5
  

Санни: Сильное чувство, сильная любовь / Sunny: Tsuyoi Kimochi Tsuyoi Ai (Хитоси Онэ) [2018, драма, мелодрама, комедия, BDRip 720p] MVO ["Синема УС"] pb.wtf

Санни: Сильное чувство, сильная любовь через торрент pb.wtf

Размер: 6.02 GB | Добавлен: 7 мес. назад | Торрент скачан:10 раз
Скачать  

04-06-2019 04:36 Санни: Сильное чувство, сильная любовь Скачать торрент  

Санни: Сильное чувство, сильная любовь / Sunny: Tsuyoi Kimochi Tsuyoi Ai Год выпуска: 2018
Страна: Япония
Жанр: драма, мелодрама, комедия
Продолжительность: 01:59:33
Перевод: Любительский (многоголосый) | "Синема УС"
Субтитры: отсутствуют

Режиссер: Хитоси Онэ

rating

В ролях: Рио Синохара, Судзу Хиросэ, Юка Итая, Эико Коикэ, Майка Ямамото, Риэ Томосака, Миу Томита, Наоми Ватанабэ, Мио Нода, Эридза Икэда

Описание: 40-летняя домохозяйка Нами встречает старую школьную подругу Сэрику, с которой они не виделись много лет. У той рак в последней стадии, и напоследок женщина хочет повидаться с девчонками из их школьной банды «Санни». Нами придется разыскать бывших одноклассниц и вспомнить молодость.

Качество: BDRip 720p
Формат: MKV
Видео: h.264,6 761 Кбит/с, 1280x694
Аудио#1: Русский (AC3, 2 ch, 448 Кбит/с)
скриншот  скриншот  скриншот  

Общее
Уникальный идентификатор : 245664780627006581166761610505677203879 (0xB8D150D39F18784FA8AAC8020A1069A7)
Полное имя : D:\Sunny.Our.Hearts.Beat.Together.2018.P.BDRip.72Op.mkv
Формат : Matroska
Версия формата : Version 2
Размер файла : 6,02 Гбайт
Продолжительность : 1 ч. 59 м.
Режим общего битрейта : Переменный
Общий поток : 7211 Кбит/сек
Дата кодирования : UTC 2019-06-02 07:55:09
Программа кодирования : mkvmerge v8.3.0 ('Over the Horizon') 64bit
Библиотека кодирования : libebml v1.3.1 + libmatroska v1.4.2

Видео
Идентификатор : 1
Формат : AVC
Формат/Информация : Advanced Video Codec
Профиль формата : High@L4.1
Параметр CABAC формата : Да
Параметр RefFrames формата : 4 кадра
Идентификатор кодека : V_MPEG4/ISO/AVC
Продолжительность : 1 ч. 59 м.
Вид битрейта : Переменный
Битрейт : 6761 Кбит/сек
Максимальный битрейт : 7500 Кбит/сек
Ширина : 1280 пикселей
Высота : 694 пикселя
Соотношение сторон : 1,85:1
Режим частоты кадров : Постоянный
Частота кадров : 23,976 (24000/1001) кадра/сек
Стандарт вещания : Component
Цветовое пространство : YUV
Субдискретизация насыщенности : 4:2:0
Битовая глубина : 8 бит
Тип развёртки : Прогрессивная
Бит/(Пиксели*Кадры) : 0.311
Размер потока : 5,53 Гбайт (92%)
Default : Да
Forced : Нет
Цветовой диапазон : Limited
Основные цвета : BT.709
Характеристики трансфера : BT.709
Коэффициенты матрицы : BT.709

Аудио
Идентификатор : 2
Формат : AC-3
Формат/Информация : Audio Coding 3
Расширение режима : CM (complete main)
Параметр Endianness формата : Big
Идентификатор кодека : A_AC3
Продолжительность : 1 ч. 59 м.
Вид битрейта : Постоянный
Битрейт : 448 Кбит/сек
Каналы : 2 канала
Расположение каналов : Front: L R
Частота : 48,0 КГц
Частота кадров : 31,250 кадров/сек (1536 spf)
Метод сжатия : С потерями
Размер потока : 383 Мбайт (6%)
Default : Да
Forced : Нет

pb.wtf



Скачать Санни: Сильное чувство, сильная любовь через торрент https://d.radikal.ru/d25/1906/47/98c6d84e2a4e.jpg Скачать фильм Санни: Сильное чувство, сильная любовь через торрент бесплантно в хорошем качестве Описание: 40-летняя домохозяйка Нами встречает старую школьную подругу Сэрику, с которой они не виделись много лет. У той рак в последней ... 10 10 2
Торрент: Зарегистрирован [2019-06-04 04:36] · скачан: 10 раз
Статус: # сомнительно
Размер: 6.02 GB
Как cкачать? Как скачать Санни: Сильное чувство, сильная любовь через торрент | qTorrent

% Раздел Тема Автор DL S | L
T Фильмы (мультфильмы) cо спонсором показа (Новинки AVI/MKV) [ 2.05 GB ] Санни: Сильное чувство сильная любовь / Sunny: Tsuyoi Kimochi Tsuyoi Ai [2018 HDRip] MVO ["Синема УС"] bober100 Скачать
1 | 0
T Фильмы (мультфильмы) cо спонсором показа (Новинки AVI/MKV) [ 1.37 GB ] Санни: Сильное чувство сильная любовь / Sunny: Tsuyoi Kimochi Tsuyoi Ai [2018 HDRip] MVO ["Синема УС"] bober100 Скачать
1 | 0

28-11-2019 20:33  

Отключить всю рекламу на сайте

    Дорогой пользователь! Огромная просьба, поблагодарите релизера, оцените раздачу и оставьте свои комментарий, если Вы скачали Санни: Сильное чувство, сильная любовь через торрент бесплатно! Внесите свою лепту в развитие PiratBit!
    Комментировать посты могут только пользователи прошедшие не сложную регистрацию
    Показать сообщения:    

    Санни: Сильное чувство, сильная любовь через торрент
    Скачать бесплатно Санни: Сильное чувство, сильная любовь
    Санни: Сильное чувство, сильная любовь скачать торрент
    Санни: Сильное чувство, сильная любовь смотреть онлайн
    Cкачать фильм Санни: Сильное чувство, сильная любовь бесплатно
    Санни: Сильное чувство, сильная любовь скачать торрент в хорошем качестве
    Санни: Сильное чувство, сильная любовь смотреть онлайн бесплатно в хорошем качестве


    Вы не можете начинать темы
    Вы не можете отвечать на сообщения
    Вы не можете редактировать свои сообщения
    Вы не можете удалять свои сообщения
    Вы не можете голосовать в опросах
    Вы не можете прикреплять файлы к сообщениям
    Вы можете скачивать файлы