Ссылка на приватное зеркало нашего сайта всего за 1$. Внимание количество ограничено!!!

2 сезон

iTunes

1 сезон

1

2 сезон

2 сезон

iTunes

1 сезон

RePack

30

Ultimate

ВАЖНО

ИГРА 18+

pack

RePack

MK11
pack

Забери бонус

RePack

jed

!!Акция!!

Alien_Rage

RePack

fifa19

RePack

Assassins Creed: Odyssey

RePack

NEED FOR SPEED™ PAYBACK

4 сезон

9 сезон

Бесстыжие 9 сезон

Все сериалы

все сериалы на PB.wtf

RePack

FAR CRY 5
  

Благие знамения / Good Omens / Сезон: 1 / Серии: 1-6 из 6 (Дуглас Маккиннон) [2019, фэнтези, комедия, WEB-DL 720p] MVO [LostFilm] pb.wtf

Благие знамения через торрент pb.wtf

Раздают: 3 [ 121 KB/s ]
Размер: 8.3 GB | Добавлен: 1 год 4 мес. назад | Торрент скачан:134 раза
Скачать  

04-06-2019 07:14 Благие знамения Скачать торрент  

Благие знамения | Good Omens
«The end is nigh»
Производство: Великобритания, США
Год выпуска: 2019
Жанр: фэнтези, комедия
Продолжительность: ~ 00:51:00 серия
Премьера (мир): 31 мая 2019
Перевод: Профессиональный (многоголосый закадровый) | LostFilm
Субтитры: Rus, Eng (SDH)

Режиссер: Дуглас Маккиннон

В ролях:

Майкл Шин, Дэвид Теннант, Фрэнсис МакДорманд, Шан Брук, Дэниэл Мейс, Сэм Тейлор Бак, Джон Хэмм, Адриа Архона, Пол Чахиди, Нед Деннехи

Описание:

В центре сюжета ангел Азирафель и демон Кроули, которые объединяют усилия, чтобы предотвратить конец света, так как за долгие века успели привыкнуть к жизни на земле.



Качество видео: WEB-DL 720p
Формат: MKV

Видео: AVC, 1280 x 544 (2.353), 25.000 fps, ~2784 kbps
Аудио Rus: AC-3, 48 kHz, 2 ch, 384 kbps |LostFilm|
Аудио Eng: E-AC-3, 48 kHz, 6 ch, 640 kbps |Original|
Общее
Уникальный идентификатор : 221278538962117809353438371229434380145 (0xA678B248D3839C39E24A35C6BFB3FF71)
Полное имя : E:\_Сериалы\_Сериалы\Благие знамения\Good Omens.S01.WEB-DL.720p.Rus.Eng.LostFilm\Good.Omens.s01e01.WEB-DL.720p.Rus.Eng.LostFilm.mkv
Формат : Matroska
Версия формата : Version 4
Размер файла : 1,36 Гбайт
Продолжительность : 51 м. 15 с.
Общий поток : 3810 Кбит/сек
Дата кодирования : UTC 2019-06-04 04:48:53
Программа кодирования : mkvmerge v34.0.0 ('Sight and Seen') 64-bit
Библиотека кодирования : libebml v1.3.7 + libmatroska v1.5.0

Видео
Идентификатор : 1
Формат : AVC
Формат/Информация : Advanced Video Codec
Профиль формата : High@L4.1
Настройки формата : CABAC / 5 Ref Frames
Параметр CABAC формата : Да
Параметр RefFrames формата : 5 кадров
Идентификатор кодека : V_MPEG4/ISO/AVC
Продолжительность : 51 м. 15 с.
Битрейт : 2784 Кбит/сек
Ширина : 1280 пикселей
Высота : 544 пикселя
Соотношение сторон : 2,35:1
Режим частоты кадров : Постоянный
Частота кадров : 25,000 кадров/сек
Цветовое пространство : YUV
Субдискретизация насыщенности : 4:2:0
Битовая глубина : 8 бит
Тип развёртки : Прогрессивная
Бит/(Пиксели*Кадры) : 0.160
Размер потока : 1021 Мбайт (73%)
Библиотека кодирования : x264 core 157 r2935 545de2f
Настройки программы : cabac=1 / ref=5 / deblock=1:-3:-3 / analyse=0x3:0x113 / me=umh / subme=8 / psy=1 / psy_rd=1.00:0.00 / mixed_ref=1 / me_range=16 / chroma_me=1 / trellis=2 / 8x8dct=1 / cqm=0 / deadzone=21,11 / fast_pskip=1 / chroma_qp_offset=-2 / threads=17 / lookahead_threads=2 / sliced_threads=0 / nr=0 / decimate=1 / interlaced=0 / bluray_compat=0 / constrained_intra=0 / bframes=3 / b_pyramid=2 / b_adapt=1 / b_bias=0 / direct=3 / weightb=1 / open_gop=0 / weightp=2 / keyint=250 / keyint_min=25 / scenecut=40 / intra_refresh=0 / rc_lookahead=50 / rc=crf / mbtree=1 / crf=18.0 / qcomp=0.60 / qpmin=0 / qpmax=69 / qpstep=4 / ip_ratio=1.40 / aq=3:1.00
Default : Да
Forced : Нет

Аудио #1
Идентификатор : 2
Формат : AC-3
Формат/Информация : Audio Coding 3
Коммерческое название : Dolby Digital
Идентификатор кодека : A_AC3
Продолжительность : 51 м. 15 с.
Вид битрейта : Постоянный
Битрейт : 384 Кбит/сек
Каналы : 2 канала
Channel layout : L R
Частота : 48,0 КГц
Частота кадров : 31,250 кадров/сек (1536 SPF)
Битовая глубина : 16 бит
Метод сжатия : С потерями
Размер потока : 141 Мбайт (10%)
Язык : Russian
ServiceKind/String : Complete Main
Default : Да
Forced : Нет

Аудио #2
Идентификатор : 3
Формат : E-AC-3
Формат/Информация : Enhanced AC-3
Коммерческое название : Dolby Digital Plus
Идентификатор кодека : A_EAC3
Продолжительность : 51 м. 15 с.
Вид битрейта : Постоянный
Битрейт : 640 Кбит/сек
Каналы : 6 каналов
Channel layout : L R C LFE Ls Rs
Частота : 48,0 КГц
Частота кадров : 31,250 кадров/сек (1536 SPF)
Метод сжатия : С потерями
Размер потока : 235 Мбайт (17%)
Язык : English
ServiceKind/String : Complete Main
Default : Нет
Forced : Нет

Текст #1
Идентификатор : 4
Формат : UTF-8
Идентификатор кодека : S_TEXT/UTF8
Идентификатор кодека/Информация : UTF-8 Plain Text
Продолжительность : 49 м. 2 с.
Битрейт : 128 бит/сек
ElementCount : 828
Размер потока : 46,2 Кбайт (0%)
Язык : Russian
Default : Нет
Forced : Нет

Текст #2
Идентификатор : 5
Формат : UTF-8
Идентификатор кодека : S_TEXT/UTF8
Идентификатор кодека/Информация : UTF-8 Plain Text
Продолжительность : 49 м. 6 с.
Битрейт : 87 бит/сек
ElementCount : 1020
Размер потока : 31,5 Кбайт (0%)
Язык : English
Default : Нет
Forced : Нет
скриншот  скриншот  скриншот  скриншот  
Раздача ведётся путём добавления новых серий; при каждом добавлении создаётся новый торрент.
Чтобы начать докачку новой серии, пользователям необходимо сделать следующее:
1. остановить скачивание,
2. удалить старый торрент у себя из клиента (старые серии удалять не надо),
3. скачать новый торрент и запустить его у себя в клиенте вместо старого, при этом указать клиенту путь в старую папку, куда и должно происходить скачивание новых серий.

Ваш клиент при этом должен произвести хеширование (проверку) старой папки (если не производит сам - помогите ему сделать это), и будет докачивать только те серии которых у вас ещё нет. Старые серии при этом не удаляются, а продолжают раздаваться!

Eсли вы уже удалили старые серии, то предотвратить повторную закачку старых серий можно, отжав галочку в соответствующих местах при запуске нового торрента. По возможности, желательно не удалять старые серии как можно дольше, чтобы релизёр не столько продолжал раздавать старые серии, а смог сконцентрироваться на новых.

Совет для тех, кто не хочет ждать перехеширования:
Создайте ещё одну папку рядом с папкой сериала (рядом, а не в ней!!!). Каждую новую серию после удачной загрузки копируйте в новую папку так чтобы ваша основная папка всегда была пуста. Когда ваш новый торрент предложит вам закачать все файлы, выберете только последнюю. Для сидирования же укажите адрес новой папки.

Как закачать отдельный файл из торрента или докачать ранее пропущенные файлы торрента!
1. Открыть торрент
2. Снять галки с тех файлов торрента, которые мы не хотим закачивать. Оставляем только на нужных нам файлах (файле).
3. Нажать О.К.

В клиенте utorrent

Инструкция

1) Открыть торрент


2) Снять галки с тех файлов торрента, которые мы не хотим закачивать:

* либо вручную, снимая с каждого файла галку( скрин №1)
* либо, нажав кнопку "Снять метки (Select None)", сняв сразу со всех файлов(скрин №2)
№1

№2

Оставляем только на нужных нам файлах (файле).

3)Нажать О.К
Приятного просмотра!!!pb.wtf



Скачать Благие знамения через торрент https://i5.imageban.ru/out/2019/06/01/c953d7dfb1e8064251487c44c6349d5a.png Скачать фильм Благие знамения через торрент бесплантно в хорошем качестве Описание:В центре сюжета ангел Азирафель и демон Кроули, которые объединяют усилия, чтобы предотвратить конец света, так как за долгие века ... 8.9 10 8
Info! Золотая раздача, скачанное не засчитывается.
Торрент: Зарегистрирован [2019-07-12 09:00] · скачан: 134 раз
Статус: √ проверено
Размер: 8.3 GB
Как cкачать? Как скачать Благие знамения через торрент | qTorrent

% Раздел Тема Автор DL S | L
Зарубежные сериалы [ 20.93 GB ] Благие знамения / Good Omens / Сезон: 1 / Серии: 1-6 из 6 [2019 WEB-DL 1080p] DVO [Кубик в Кубе] bober100 Скачать
1 | 0
Зарубежные сериалы [ 20.93 GB ] Благие знамения / Good Omens / Сезон: 1 / Серии: 1-6 из 6 [2019 WEB-DL 1080p] MVO [Lostfilm] bober100 Скачать
1 | 0
Зарубежные сериалы [ 6.8 GB ] Благие знамения / Good Omens / Сезон: 1 / Серии: 1-6 из 6 [2019 WEB-DLRip-AVC] MVO [AlexFilm LostFilm] - ExKinoRay Enigma2010 Скачать
25 | 6
Зарубежные сериалы [ 30.77 GB ] Благие знамения / Good Omens / Сезон 1 / Серии 1-6 из 6 [2019 UHD WEB-DL 2160p] MVO [LostFilm] sheker187 Скачать
1 | 0
Зарубежные сериалы [ 20.05 GB ] Благие знамения / Good Omens / Сезон: 1 / Серии: 1-6 из 6 [2019 WEB-DL 1080p] [MVO] killermax2013 Скачать
1 | 0
Зарубежные сериалы [ 20.49 GB ] Благие знамения / Good Omens / Сезон: 1 / Серии: 1-6 из 6 [2019 WEB-DL 1080p] MVO [TVShows] bober100 Скачать
1 | 0
Зарубежные сериалы [ 4.59 GB ] Благие знамения / Good Omens / Сезон: 1 / Серии: 1-6 из 6 [2019 WEB-DLRip] MVO [LostFilm] bober100 Скачать
2 | 0


Последний раз редактировалось: bober100 (2019-07-12 09:06), всего редактировалось 2 раз(а)

28-11-2019 20:33  

Отключить всю рекламу на сайте

06-06-2019 21:13 Благие знамения Скачать торрент  

а обновление серий будет? их 6 можно в интернете посмотреть в данном переводе.pb.wtf



    Дорогой пользователь! Огромная просьба, поблагодарите релизера, оцените раздачу и оставьте свои комментарий, если Вы скачали Благие знамения через торрент бесплатно! Внесите свою лепту в развитие PiratBit!
    Комментировать посты могут только пользователи прошедшие не сложную регистрацию
    Показать сообщения:    

    Благие знамения через торрент
    Скачать бесплатно Благие знамения
    Благие знамения скачать торрент
    Благие знамения смотреть онлайн
    Cкачать фильм Благие знамения бесплатно
    Благие знамения скачать торрент в хорошем качестве
    Благие знамения смотреть онлайн бесплатно в хорошем качестве


    Вы не можете начинать темы
    Вы не можете отвечать на сообщения
    Вы не можете редактировать свои сообщения
    Вы не можете удалять свои сообщения
    Вы не можете голосовать в опросах
    Вы не можете прикреплять файлы к сообщениям
    Вы можете скачивать файлы