Marvel's Avengers Deluxe Edition (супер цена) 159р. Внимание количество ограничено!!!

2 сезон

iTunes

iTunes

1

iTunes

iTunes

iTunes

WEBRip

iTunes

30
pack

Новость дня

ВАЖНО

!!Акция!!

Alien_RageХит недели

RePack

Horizon Zero Dawn

ИГРА 18+

pack

RePack

jed

!!Акция!!

Alien_Rage

RePack

fifa19

RePack

Assassins Creed: Odyssey

RePack

NEED FOR SPEED™ PAYBACK

4 сезон

9 сезон

Бесстыжие 9 сезон

Все сериалы

все сериалы на PB.wtf

RePack

FAR CRY 5
  

Золотая молодежь / Une jeunesse dorée (Ева Йонеско) [2019, драма, WEB-DL 720p] MVO [Официальный звук] pb.wtf

Золотая молодежь через торрент pb.wtf

Размер: 4.32 GB | Добавлен: 1 год 3 мес. назад | Торрент скачан:4 раза
Скачать  

04-06-2019 18:31 Золотая молодежь Скачать торрент  

Золотая молодежь / Une jeunesse dorée Год выпуска: 2019
Страна: Франция, Бельгия
Жанр: драма
Продолжительность: 01:48:26
Перевод: Профессиональный (многоголосый) | Официальный звук
Субтитры: отсутствуют

Режиссер: Ева Йонеско

rating

В ролях:

Изабель Юппер, Галатеа Беллуджи, Мельвиль Пупо, Лукас Йонеско, Ален-Фабьен Делон, Нассим Гвизани, Юдит Зинс, Манал Исса, Брайан Скотт Бэгли, Бенуа Соулз

Описание:

Роза и Мишель - молодая влюбленная пара. Каждую ночь они находятся в поисках приключений, блуждая по ночным клубам и главным вечеринкам города. На одной из них они встречают необычную супружескую пару. Повинуясь неудержимому желанию прочувствовать атмосферу настоящей свободы и любви, они погружаются в новый мир мечтаний, соблазнов и обманов...

Качество: WEB-DL 720p
Формат: MKV

Видео: h.264, 5 321 Кбит/с, 1280x692
Аудио: Русский, (AC3, 2 ch, 384 Кбит/с)
скриншот  скриншот  скриншот  

Общее
Уникальный идентификатор : 200803372536631438182043059381759367188 (0x971152A3B0DC9B908830590C0FDBD814)
Полное имя : D:\Une.Jeunesse.Doree.2018.Pof.WEB-DL.72Op.mkv
Формат : Matroska
Версия формата : Version 2
Размер файла : 4,32 Гбайт
Продолжительность : 1 ч. 48 м.
Режим общего битрейта : Переменный
Общий поток : 5707 Кбит/сек
Дата кодирования : UTC 2019-06-02 03:49:05
Программа кодирования : mkvmerge v8.3.0 ('Over the Horizon') 64bit
Библиотека кодирования : libebml v1.3.1 + libmatroska v1.4.2

Видео
Идентификатор : 1
Формат : AVC
Формат/Информация : Advanced Video Codec
Профиль формата : High@L4.1
Параметр CABAC формата : Да
Параметр RefFrames формата : 4 кадра
Идентификатор кодека : V_MPEG4/ISO/AVC
Продолжительность : 1 ч. 48 м.
Вид битрейта : Переменный
Битрейт : 5321 Кбит/сек
Максимальный битрейт : 6000 Кбит/сек
Ширина : 1280 пикселей
Высота : 692 пикселя
Соотношение сторон : 1,85:1
Режим частоты кадров : Постоянный
Частота кадров : 23,976 (24000/1001) кадра/сек
Стандарт вещания : Component
Цветовое пространство : YUV
Субдискретизация насыщенности : 4:2:0
Битовая глубина : 8 бит
Тип развёртки : Прогрессивная
Бит/(Пиксели*Кадры) : 0.245
Размер потока : 3,95 Гбайт (91%)
Default : Да
Forced : Нет
Цветовой диапазон : Limited
Основные цвета : BT.709
Характеристики трансфера : BT.709
Коэффициенты матрицы : BT.709

Аудио
Идентификатор : 2
Формат : AC-3
Формат/Информация : Audio Coding 3
Расширение режима : CM (complete main)
Параметр Endianness формата : Big
Идентификатор кодека : A_AC3
Продолжительность : 1 ч. 48 м.
Вид битрейта : Постоянный
Битрейт : 384 Кбит/сек
Каналы : 2 канала
Расположение каналов : Front: L R
Частота : 48,0 КГц
Частота кадров : 31,250 кадров/сек (1536 spf)
Метод сжатия : С потерями
Размер потока : 298 Мбайт (7%)
Default : Да
Forced : Нет

pb.wtf



Скачать Золотая молодежь через торрент https://c.radikal.ru/c00/1906/c8/2dcf9012d71e.jpg Скачать фильм Золотая молодежь через торрент бесплантно в хорошем качестве Описание: Роза и Мишель - молодая влюбленная пара. Каждую ночь они находятся в поисках приключений, блуждая по ночным клубам и главным ... 10 10 2
Торрент: Зарегистрирован [2019-06-04 18:31] · скачан: 4 раз
Статус: T временная
Размер: 4.32 GB
Как cкачать? Как скачать Золотая молодежь через торрент | qTorrent

% Раздел Тема Автор DL S | L
T Фильмы (мультфильмы) cо спонсором показа (Новинки AVI/MKV) [ 4.9 GB ] Золотая молодежь / Une jeunesse dorée [2019 WEB-DL 1080p] MVO [Официальный звук] bober100 Скачать
1 | 0
T Фильмы (мультфильмы) cо спонсором показа (Новинки AVI/MKV) [ 2.05 GB ] Золотая молодежь / Une jeunesse dorée [2019 WEB-DLRip] MVO [Официальный звук] bober100 Скачать
1 | 0
T Фильмы (мультфильмы) cо спонсором показа (Новинки AVI/MKV) [ 1.37 GB ] Золотая молодежь / Une jeunesse dorée [2019 WEB-DLRip] MVO [Официальный звук] bober100 Скачать
1 | 0

28-11-2019 20:33  

Отключить всю рекламу на сайте

    Дорогой пользователь! Огромная просьба, поблагодарите релизера, оцените раздачу и оставьте свои комментарий, если Вы скачали Золотая молодежь через торрент бесплатно! Внесите свою лепту в развитие PiratBit!
    Комментировать посты могут только пользователи прошедшие не сложную регистрацию
    Показать сообщения:    

    Золотая молодежь через торрент
    Скачать бесплатно Золотая молодежь
    Золотая молодежь скачать торрент
    Золотая молодежь смотреть онлайн
    Cкачать фильм Золотая молодежь бесплатно
    Золотая молодежь скачать торрент в хорошем качестве
    Золотая молодежь смотреть онлайн бесплатно в хорошем качестве


    Вы не можете начинать темы
    Вы не можете отвечать на сообщения
    Вы не можете редактировать свои сообщения
    Вы не можете удалять свои сообщения
    Вы не можете голосовать в опросах
    Вы не можете прикреплять файлы к сообщениям
    Вы можете скачивать файлы