Ссылка на приватное зеркало всего за 1$. Внимание количество ограничено!!!

OK

1+1

iTunes

мы

OK

1

WEB-DLRip

Джокер

Пифагор

Ведьмак / The Witcher сериал

iTunes

ПШазам

ОК

Оно 2

iTunes

30
pack

Вам бонус

ВАЖНО

!!Акция!!

Alien_RageХит недели

RePack

Resident Evil 21

ИГРА 18+

pack

RePack

jed

RePack

fifa19

RePack

Assassins Creed: Odyssey

RePack

NEED FOR SPEED™ PAYBACK

4 сезон

9 сезон

Бесстыжие 9 сезон

Все сериалы

все сериалы на PB.wtf

RePack

FAR CRY 5
  

Золотая молодежь / Une jeunesse dorée (Ева Йонеско) [2019, драма, WEB-DL 1080p] MVO [Официальный звук] pb.wtf

Золотая молодежь через торрент pb.wtf

Размер: 4.9 GB | Добавлен: 7 мес. назад | Торрент скачан:17 раз
Скачать  

04-06-2019 18:31 Золотая молодежь Скачать торрент  

Золотая молодежь / Une jeunesse dorée Год выпуска: 2019
Страна: Франция, Бельгия
Жанр: драма
Продолжительность: 01:48:26
Перевод: Профессиональный (многоголосый) | Официальный звук
Субтитры: отсутствуют

Режиссер: Ева Йонеско

rating

В ролях:

Изабель Юппер, Галатеа Беллуджи, Мельвиль Пупо, Лукас Йонеско, Ален-Фабьен Делон, Нассим Гвизани, Юдит Зинс, Манал Исса, Брайан Скотт Бэгли, Бенуа Соулз

Описание:

Роза и Мишель - молодая влюбленная пара. Каждую ночь они находятся в поисках приключений, блуждая по ночным клубам и главным вечеринкам города. На одной из них они встречают необычную супружескую пару. Повинуясь неудержимому желанию прочувствовать атмосферу настоящей свободы и любви, они погружаются в новый мир мечтаний, соблазнов и обманов...

Качество: WEB-DL 1080p
Формат: MKV

Видео: h.264, 6 082 Кбит/с, 1920x1038
Аудио: Русский, (AC3, 2 ch, 384 Кбит/с)
скриншот  скриншот  скриншот  

Общее
Уникальный идентификатор : 234859511170440264206054545911046295919 (0xB0B04BE94E8D6C6686C828786355516F)
Полное имя : D:\Une.Jeunesse.Doree.2018.Pof.WEB-DL.1O8Op.mkv
Формат : Matroska
Версия формата : Version 2
Размер файла : 4,90 Гбайт
Продолжительность : 1 ч. 48 м.
Режим общего битрейта : Переменный
Общий поток : 6468 Кбит/сек
Дата кодирования : UTC 2019-06-02 03:50:00
Программа кодирования : mkvmerge v8.3.0 ('Over the Horizon') 64bit
Библиотека кодирования : libebml v1.3.1 + libmatroska v1.4.2

Видео
Идентификатор : 1
Формат : AVC
Формат/Информация : Advanced Video Codec
Профиль формата : High@L4.1
Параметр CABAC формата : Да
Параметр RefFrames формата : 4 кадра
Идентификатор кодека : V_MPEG4/ISO/AVC
Продолжительность : 1 ч. 48 м.
Вид битрейта : Переменный
Битрейт : 6082 Кбит/сек
Максимальный битрейт : 6900 Кбит/сек
Ширина : 1920 пикселей
Высота : 1038 пикселей
Соотношение сторон : 1,85:1
Режим частоты кадров : Постоянный
Частота кадров : 23,976 (24000/1001) кадра/сек
Стандарт вещания : Component
Цветовое пространство : YUV
Субдискретизация насыщенности : 4:2:0
Битовая глубина : 8 бит
Тип развёртки : Прогрессивная
Бит/(Пиксели*Кадры) : 0.125
Размер потока : 4,51 Гбайт (92%)
Default : Да
Forced : Нет
Цветовой диапазон : Limited
Основные цвета : BT.709
Характеристики трансфера : BT.709
Коэффициенты матрицы : BT.709

Аудио
Идентификатор : 2
Формат : AC-3
Формат/Информация : Audio Coding 3
Расширение режима : CM (complete main)
Параметр Endianness формата : Big
Идентификатор кодека : A_AC3
Продолжительность : 1 ч. 48 м.
Вид битрейта : Постоянный
Битрейт : 384 Кбит/сек
Каналы : 2 канала
Расположение каналов : Front: L R
Частота : 48,0 КГц
Частота кадров : 31,250 кадров/сек (1536 spf)
Метод сжатия : С потерями
Размер потока : 298 Мбайт (6%)
Default : Да
Forced : Нет

pb.wtf



Скачать Золотая молодежь через торрент https://c.radikal.ru/c00/1906/c8/2dcf9012d71e.jpg Скачать фильм Золотая молодежь через торрент бесплантно в хорошем качестве Описание: Роза и Мишель - молодая влюбленная пара. Каждую ночь они находятся в поисках приключений, блуждая по ночным клубам и главным ... 10 10 2
Торрент: Зарегистрирован [2019-06-04 18:31] · скачан: 17 раз
Статус: T временная
Размер: 4.9 GB
Как cкачать? Как скачать Золотая молодежь через торрент | qTorrent

% Раздел Тема Автор DL S | L
T Фильмы (мультфильмы) cо спонсором показа (Новинки AVI/MKV) [ 4.32 GB ] Золотая молодежь / Une jeunesse dorée [2019 WEB-DL 720p] MVO [Официальный звук] bober100 Скачать
1 | 0
T Фильмы (мультфильмы) cо спонсором показа (Новинки AVI/MKV) [ 2.05 GB ] Золотая молодежь / Une jeunesse dorée [2019 WEB-DLRip] MVO [Официальный звук] bober100 Скачать
1 | 0
T Фильмы (мультфильмы) cо спонсором показа (Новинки AVI/MKV) [ 1.37 GB ] Золотая молодежь / Une jeunesse dorée [2019 WEB-DLRip] MVO [Официальный звук] bober100 Скачать
1 | 0

28-11-2019 20:33  

Отключить всю рекламу на сайте

    Дорогой пользователь! Огромная просьба, поблагодарите релизера, оцените раздачу и оставьте свои комментарий, если Вы скачали Золотая молодежь через торрент бесплатно! Внесите свою лепту в развитие PiratBit!
    Комментировать посты могут только пользователи прошедшие не сложную регистрацию
    Показать сообщения:    

    Золотая молодежь через торрент
    Скачать бесплатно Золотая молодежь
    Золотая молодежь скачать торрент
    Золотая молодежь смотреть онлайн
    Cкачать фильм Золотая молодежь бесплатно
    Золотая молодежь скачать торрент в хорошем качестве
    Золотая молодежь смотреть онлайн бесплатно в хорошем качестве


    Вы не можете начинать темы
    Вы не можете отвечать на сообщения
    Вы не можете редактировать свои сообщения
    Вы не можете удалять свои сообщения
    Вы не можете голосовать в опросах
    Вы не можете прикреплять файлы к сообщениям
    Вы можете скачивать файлы