Ссылка на приватное зеркало всего за 1$. Внимание количество ограничено!!!

OK

1+1

iTunes

мы

OK

1

WEB-DLRip

Джокер

Пифагор

Ведьмак / The Witcher сериал

iTunes

ПШазам

ОК

Оно 2

iTunes

30
pack

Вам бонус

ВАЖНО

!!Акция!!

Alien_RageХит недели

RePack

Resident Evil 21

ИГРА 18+

pack

RePack

jed

RePack

fifa19

RePack

Assassins Creed: Odyssey

RePack

NEED FOR SPEED™ PAYBACK

4 сезон

9 сезон

Бесстыжие 9 сезон

Все сериалы

все сериалы на PB.wtf

RePack

FAR CRY 5
  

Маленький незнакомец / The Little Stranger (Леонард Абрахамсон) [2018 , Драма, триллер, мелодрама, ужасы, BDRip 720p] MVO [Официальный звук] pb.wtf

Маленький незнакомец через торрент pb.wtf

Размер: 4.44 GB | Добавлен: 7 мес. назад | Торрент скачан:8 раз
Скачать  

04-06-2019 18:51 Маленький незнакомец Скачать торрент  

Маленький незнакомец / The Little Stranger Год выпуска: 2018
Страна: Ирландия, Великобритания, Франция
Жанр: Драма, триллер, мелодрама, ужасы
Продолжительность: 01:53:52
Перевод: Профессиональный (многоголосый) | Официальный звук
Субтитры: отсутствуют

Режиссер: Леонард Абрахамсон

rating

В ролях:

Донал Глисон, Рут Уилсон, Уилл Поултер, Шарлотта Рэмплинг, Джош Дилан, Кейт Филлипс, Гарри Хадден-Патон, Анна Маделей, Камилла Арведсон

Описание:

Летом 1947 года доктора Фарадея вызывают к пациентке в Хандредс-Холл, где когда-то его мать работала горничной. У самого доктора еще с детства после рассказов матери осталась навязчивая идея жить в этом поместье. Хандредс-Холл уже более двух столетий является домом семьи Айрес и сейчас находится в упадке, а его обитатели — пожилая мать, взрослые сын и дочь — вроде бы ничего не замечают, но притворившаяся больной их нынешняя горничная явно чего-то боится.

Качество: BDRip 720p
Формат: MKV

Видео: h.264,5 272 Кбит/с, 1280x692
Аудио: Русский, (AC3, 2 ch, 384 Кбит/с)
скриншот  скриншот  скриншот  

Общее
Уникальный идентификатор : 225554812119557593152503627853160957192 (0xA9B046D43FDAB86A8A3D31EF6FA6C508)
Полное имя : D:\The.Little.Stranger.2018.Pof.BDRip.72Op.mkv
Формат : Matroska
Версия формата : Version 2
Размер файла : 4,44 Гбайт
Продолжительность : 1 ч. 52 м.
Режим общего битрейта : Переменный
Общий поток : 5658 Кбит/сек
Дата кодирования : UTC 2019-06-02 03:41:20
Программа кодирования : mkvmerge v8.3.0 ('Over the Horizon') 64bit
Библиотека кодирования : libebml v1.3.1 + libmatroska v1.4.2

Видео
Идентификатор : 1
Формат : AVC
Формат/Информация : Advanced Video Codec
Профиль формата : High@L4.1
Параметр CABAC формата : Да
Параметр RefFrames формата : 4 кадра
Идентификатор кодека : V_MPEG4/ISO/AVC
Продолжительность : 1 ч. 52 м.
Вид битрейта : Переменный
Битрейт : 5272 Кбит/сек
Максимальный битрейт : 6000 Кбит/сек
Ширина : 1280 пикселей
Высота : 692 пикселя
Соотношение сторон : 1,85:1
Режим частоты кадров : Постоянный
Частота кадров : 23,976 (24000/1001) кадра/сек
Стандарт вещания : Component
Цветовое пространство : YUV
Субдискретизация насыщенности : 4:2:0
Битовая глубина : 8 бит
Тип развёртки : Прогрессивная
Бит/(Пиксели*Кадры) : 0.243
Размер потока : 4,05 Гбайт (91%)
Default : Да
Forced : Нет
Цветовой диапазон : Limited
Основные цвета : BT.709
Характеристики трансфера : BT.709
Коэффициенты матрицы : BT.709

Аудио
Идентификатор : 2
Формат : AC-3
Формат/Информация : Audio Coding 3
Расширение режима : CM (complete main)
Параметр Endianness формата : Big
Идентификатор кодека : A_AC3
Продолжительность : 1 ч. 52 м.
Вид битрейта : Постоянный
Битрейт : 384 Кбит/сек
Каналы : 2 канала
Расположение каналов : Front: L R
Частота : 48,0 КГц
Частота кадров : 31,250 кадров/сек (1536 spf)
Метод сжатия : С потерями
Размер потока : 309 Мбайт (7%)
Default : Да
Forced : Нет

pb.wtf



Скачать Маленький незнакомец через торрент https://b.radikal.ru/b03/1901/3b/5a09ff93910c.jpg Скачать фильм Маленький незнакомец через торрент бесплантно в хорошем качестве Описание: Летом 1947 года доктора Фарадея вызывают к пациентке в Хандредс-Холл, где когда-то его мать работала горничной. У самого доктора ... 10 10 2
Торрент: Зарегистрирован [2019-06-04 18:51] · скачан: 8 раз
Статус: # сомнительно
Размер: 4.44 GB
Как cкачать? Как скачать Маленький незнакомец через торрент | qTorrent

% Раздел Тема Автор DL S | L
# Фильмы (мультфильмы) cо спонсором показа (Новинки AVI/MKV) [ 5.08 GB ] Маленький незнакомец / The Little Stranger [2018 BDRip 1080p] MVO [Официальный звук] bober100 Скачать
2 | 0
T Фильмы (мультфильмы) cо спонсором показа (Новинки AVI/MKV) [ 2 GB ] Маленький незнакомец / The Little Stranger [2018 HDRip] MVO [Официальный звук] bober100 Скачать
1 | 0
T Фильмы (мультфильмы) cо спонсором показа (Новинки AVI/MKV) [ 1.36 GB ] Маленький незнакомец / The Little Stranger [2018 HDRip] MVO [Официальный звук] bober100 Скачать
1 | 0
Фильмы [HD 720p, 1080p] (Хороший звук DUB, MVO) [ 9.19 GB ] Маленький незнакомец / The Little Stranger [2018 BDRip 1080p] MVO [Jaskier] bober100 Скачать
2 | 0
T Релизы по Парсеру [Игры, Сериалы и Фильмы и другое...] [ 1.46 GB ] Маленький незнакомец / The Little Stranger [2018 HDRip] [MVO] killermax2013 Скачать
1 | 0
T Фильмы (WEB-DL 720p, 1080p) [ 4.4 GB ] Маленький незнакомец / The Little Stranger [2018 WEB-DL 1080p] DVO [HiWay Grope] sokol_ok Скачать
2 | 0
T Фильмы 2019-2020 (Звук TS, Cam, VO, DVO) [ 1.42 GB ] Маленький незнакомец / The Little Stranger [2018 WEB-DLRip-AVC] DVO [HiWay Grope] sokol_ok Скачать
1 | 0

28-11-2019 20:33  

Отключить всю рекламу на сайте

    Дорогой пользователь! Огромная просьба, поблагодарите релизера, оцените раздачу и оставьте свои комментарий, если Вы скачали Маленький незнакомец через торрент бесплатно! Внесите свою лепту в развитие PiratBit!
    Комментировать посты могут только пользователи прошедшие не сложную регистрацию
    Показать сообщения:    

    Маленький незнакомец через торрент
    Скачать бесплатно Маленький незнакомец
    Маленький незнакомец скачать торрент
    Маленький незнакомец смотреть онлайн
    Cкачать фильм Маленький незнакомец бесплатно
    Маленький незнакомец скачать торрент в хорошем качестве
    Маленький незнакомец смотреть онлайн бесплатно в хорошем качестве


    Вы не можете начинать темы
    Вы не можете отвечать на сообщения
    Вы не можете редактировать свои сообщения
    Вы не можете удалять свои сообщения
    Вы не можете голосовать в опросах
    Вы не можете прикреплять файлы к сообщениям
    Вы можете скачивать файлы