Ссылка на приватное зеркало всего за 1$. Внимание количество ограничено!!!

OK

1+1

iTunes

мы

OK

1

WEB-DLRip

Джокер

Пифагор

Ведьмак / The Witcher сериал

Лицензия

ПШазам

ОК

Оно 2

iTunes

30
pack

Вам бонус

ВАЖНО

!!Акция!!

Alien_RageХит недели

RePack

Resident Evil 21

ИГРА 18+

pack

RePack

jed

!!Акция!!

Alien_Rage

RePack

fifa19

RePack

Assassins Creed: Odyssey

RePack

NEED FOR SPEED™ PAYBACK

4 сезон

9 сезон

Бесстыжие 9 сезон

Все сериалы

все сериалы на PB.wtf

RePack

FAR CRY 5
  

Капитан Марвел / Captain Marvel (Анна Боден, Райан Флек) [2019, фантастика, BDRip - HEVC 1080p 12 bit 60 FPS] DUB [iTunes] pb.wtf

Капитан Марвел через торрент pb.wtf

Раздают: 10 [ 0 KB/s ]
Размер: 7.92 GB | Добавлен: 7 мес. назад | Торрент скачан:668 раз
Скачать  

04-06-2019 19:34 Капитан Марвел Скачать торрент  

Капитан Марвел / Captain Marvel
««Быстрее. Выше. Сильнее»»

Год выпуска: 2019;
Страна: США;
Жанр: фантастика;
Продолжительность: 02:03:42;
Перевод: Дублированный [iTunes];
Субтитры: русские (Full);
Субтитры: английские (Full).
Режиссер: Анна Боден, Райан Флек
В ролях:

Бри Ларсон (Carol Danvers / Vers / Captain Marvel), Сэмюэл Л. Джексон (Nick Fury), Бен Мендельсон (Talos / Keller), Джуд Лоу (Yon-Rogg), Аннетт Бенинг (Supreme Intelligence / Dr. Wendy Lawson), Джимон Хонсу (Korath), Ли Пейс (Ronan), Лашана Линч (Maria Rambeau), Джемма Чан (Minn-Erva), Кларк Грегг (Agent Coulson), Рюн Темт (Bron-Char), Альхенис Перес Сото (Att-Lass)
Описание:
После столкновения с враждующими инопланетными расами, пилот военно-воздушных сил Кэрол Дэнверс обретает суперсилу и становится неуязвимой. Героине предстоит совладать со своими новыми способностями, чтобы противостоять могущественному врагу.
Мировая премьера: 27 февраля 2019

Качество: BDRip 1080p Rip by DD2D3
Формат: MKV
Видео: V_MPEGH/ISO/HEVC, 1920x804 (2.40:1), 4000 kbps, 59,940 fps, 0,043 bpp
Аудио №1: русский / AC3 / 5.1 / 48 kHz / 384 kbps / ||
Аудио №2: английский / DTS-HD / 48 kHz / 4777 kbps / 24 bit
Навигация по главам: есть


Общее
Уникальный идентификатор : 225508170106042772900234005472731300241 (0xA9A74B3345FCD323BC81DDB3A5B58191)
Полное имя : D:\Капитан Марвел - Captain Marvel (2019) BDRip - HEVC 1080p 12 bit 60 FPS.mkv
Формат : Matroska
Версия формата : Version 4
Размер файла : 7,92 Гбайт
Продолжительность : 2 ч. 3 м.
Режим общего битрейта : Переменный
Общий поток : 9168 Кбит/сек
Название фильма : Rip by DD2D3
Дата кодирования : UTC 2019-06-04 18:56:57
Программа кодирования : mkvmerge v10.0.0 ('To Drown In You') 32bit
Библиотека кодирования : libebml v1.3.4 + libmatroska v1.4.5
Attachments : poster

Видео
Идентификатор : 1
Формат : HEVC
Формат/Информация : High Efficiency Video Coding
Профиль формата : @L4.1@Main
Идентификатор кодека : V_MPEGH/ISO/HEVC
Продолжительность : 2 ч. 3 м.
Битрейт : 4000 Кбит/сек
Ширина : 1920 пикселей
Высота : 804 пикселя
Соотношение сторон : 2,40:1
Режим частоты кадров : Постоянный
Частота кадров : 59,940 (60000/1001) кадров/сек
Цветовое пространство : YUV
Субдискретизация насыщенности : 4:2:0
Битовая глубина : 12 бит
Бит/(Пиксели*Кадры) : 0.043
Размер потока : 3,46 Гбайт (44%)
Библиотека кодирования : x265 2.3+33-0b7d54dbb71a87a0:[Windows][MSVC 1800][64 bit] 12bit: KG7x [x265.ru]
Настройки программы : cpuid=1173503 / frame-threads=2 / numa-pools=4 / wpp / no-pmode / no-pme / no-psnr / no-ssim / log-level=2 / input-csp=1 / input-res=1920x804 / interlace=0 / total-frames=444888 / level-idc=41 / high-tier=1 / uhd-bd=0 / ref=3 / no-allow-non-conformance / no-repeat-headers / annexb / no-aud / no-hrd / info / hash=0 / no-temporal-layers / open-gop / min-keyint=25 / keyint=250 / bframes=4 / b-adapt=2 / b-pyramid / bframe-bias=0 / rc-lookahead=20 / lookahead-slices=5 / scenecut=40 / no-intra-refresh / ctu=64 / min-cu-size=8 / no-rect / no-amp / max-tu-size=32 / tu-inter-depth=1 / tu-intra-depth=1 / limit-tu=0 / rdoq-level=0 / dynamic-rd=0.00 / no-ssim-rd / signhide / no-tskip / nr-intra=0 / nr-inter=0 / no-constrained-intra / strong-intra-smoothing / max-merge=2 / limit-refs=3 / no-limit-modes / me=1 / subme=2 / merange=57 / temporal-mvp / weightp / no-weightb / no-analyze-src-pics / deblock=0:0 / no-sao / no-sao-non-deblock / rd=3 / no-early-skip / no-rskip / no-fast-intra / no-tskip-fast / no-cu-lossless / no-b-intra / rdpenalty=0 / psy-rd=4.00 / psy-rdoq=0.00 / no-rd-refine / analysis-mode=0 / no-lossless / cbqpoffs=0 / crqpoffs=0 / rc=abr / bitrate=4000 / qcomp=0.60 / qpstep=1 / stats-write=0 / stats-read=2 / cplxblur=20.0 / qblur=0.5 / ipratio=1.10 / pbratio=1.00 / aq-mode=0 / aq-strength=0.00 / no-cutree / zone-count=0 / no-strict-cbr / qg-size=64 / rc-grain / qpmax=69 / qpmin=0 / sar=1 / overscan=0 / videoformat=5 / range=0 / colorprim=2 / transfer=2 / colormatrix=2 / chromaloc=0 / display-window=0 / max-cll=0,0 / min-luma=0 / max-luma=4095 / log2-max-poc-lsb=8 / vui-timing-info / vui-hrd-info / slices=1 / opt-qp-pps / opt-ref-list-length-pps / no-multi-pass-opt-rps / scenecut-bias=0.05 / no-opt-cu-delta-qp / no-aq-motion / no-hdr / no-hdr-opt / refine-level=5 / no-limit-sao
Default : Да
Forced : Нет

Аудио #1
Идентификатор : 2
Формат : AC-3
Формат/Информация : Audio Coding 3
Коммерческое название : Dolby Digital
Идентификатор кодека : A_AC3
Продолжительность : 2 ч. 3 м.
Вид битрейта : Постоянный
Битрейт : 384 Кбит/сек
Каналы : 6 каналов
Channel layout : L R C LFE Ls Rs
Частота : 48,0 КГц
Частота кадров : 31,250 кадров/сек (1536 SPF)
Битовая глубина : 16 бит
Метод сжатия : С потерями
Размер потока : 340 Мбайт (4%)
Заголовок : iTunes
Язык : Russian
ServiceKind/String : Complete Main
Default : Да
Forced : Да

Аудио #2
Идентификатор : 3
Формат : DTS XLL
Формат/Информация : Digital Theater Systems
Коммерческое название : DTS-HD Master Audio
Идентификатор кодека : A_DTS
Продолжительность : 2 ч. 3 м.
Вид битрейта : Переменный
Битрейт : 4777 Кбит/сек
Каналы : 8 каналов
Channel layout : C L R LFE Lb Rb Lss Rss
Частота : 48,0 КГц
Частота кадров : 93,750 кадра/сек (512 SPF)
Битовая глубина : 24 бит
Метод сжатия : Без потерь
Размер потока : 4,13 Гбайт (52%)
Заголовок : Original
Язык : English
Default : Нет
Forced : Нет

Текст #1
Идентификатор : 4
Формат : UTF-8
Идентификатор кодека : S_TEXT/UTF8
Идентификатор кодека/Информация : UTF-8 Plain Text
Продолжительность : 2 ч. 2 м.
Битрейт : 65 бит/сек
ElementCount : 1314
Размер потока : 58,8 Кбайт (0%)
Заголовок : Full
Язык : Russian
Default : Нет
Forced : Нет

Текст #2
Идентификатор : 5
Формат : UTF-8
Идентификатор кодека : S_TEXT/UTF8
Идентификатор кодека/Информация : UTF-8 Plain Text
Продолжительность : 1 ч. 53 м.
Битрейт : 47 бит/сек
ElementCount : 1422
Размер потока : 39,6 Кбайт (0%)
Заголовок : Full
Язык : English
Default : Нет
Forced : Нет

Меню
00:00:00.000 : en:Глава 01
00:06:52.120 : en:Глава 02
00:14:07.889 : en:Глава 03
00:23:18.272 : en:Глава 04
00:29:38.026 : en:Глава 05
00:35:07.772 : en:Глава 06
00:44:08.437 : en:Глава 07
00:50:43.499 : en:Глава 08
00:56:18.625 : en:Глава 09
01:03:02.821 : en:Глава 10
01:11:17.398 : en:Глава 11
01:17:49.164 : en:Глава 12
01:27:03.051 : en:Глава 13
01:33:22.430 : en:Глава 14
01:40:51.796 : en:Глава 15
01:46:25.087 : en:Глава 16
01:52:49.888 : en:Глава 17
скриншот  скриншот  скриншот  скриншот  скриншот  скриншот  скриншот  скриншот  

© Оформление by DD2D3 pb.wtf



Скачать Капитан Марвел через торрент https://funkyimg.com/i/2UrBw.jpg Скачать фильм Капитан Марвел через торрент бесплантно в хорошем качестве Описание: После столкновения с враждующими инопланетными расами, пилот военно-воздушных сил Кэрол Дэнверс обретает суперсилу и становится ... 9.4 10 21
Info! Золотая раздача, скачанное не засчитывается.
Торрент: Зарегистрирован [2019-06-04 19:34] · скачан: 668 раз
Статус: √ проверено
Размер: 7.92 GB
Как cкачать? Как скачать Капитан Марвел через торрент | qTorrent

% Раздел Тема Автор DL S | L
Порно фильмы с сюжетом [ 982 MB ] Капитан Марвел: XXX Пародия / Captain Marvel XXX: An Axel Braun Parody [2019 Big Budget Cosplay Couples Feature Made for Women Parody Superhero Transsexual WEB-DL] bashai5 Скачать
6 | 0
Фильмы 2019-2020 [DVDrip, WEB-DLRip, HDrip] (DUB, MVO) [ 2.27 GB ] Капитан Марвел / Captain Marvel [2019 BDRip-AVC Dub MVO] от ExKinoRay morfyi Скачать
23 | 0
Фильмы 2019-2020 [DVDrip, WEB-DLRip, HDrip] (DUB, MVO) [ 2.18 GB ] Капитан Марвел / Captain Marvel [2019 BDRip] - [] Twi7ter Скачать
91 | 22
Официальные cаундтреки к зарубежным фильмам [ 1.2 GB ] OST - Капитан Марвел / Captain Marvel 2019 / FLAC / lossless / Score bober100 Скачать
1 | 0
Официальные cаундтреки к зарубежным фильмам [ 157 MB ] OST - Капитан Марвел / Captain Marvel 2019 / MP3 / 320 kbps / Score bober100 Скачать
1 | 0
Фильмы 2019-2020 [DVDrip, WEB-DLRip, HDrip] (DUB, MVO) [ 1.45 GB ] Капитан Марвел / Captain Marvel [2019 WEB-DLRip] [Локализованная версия / Open Matte] killermax2013 Скачать
9 | 0
Фильмы (Blu-ray, BD-Remux, HDDVD) [ 40.51 GB ] Капитан Марвел / Captain Marvel [2019 Blu-ray EUR 1080p] DUB [] sheker187 Скачать
1 | 0

28-11-2019 20:33  

Отключить всю рекламу на сайте

05-06-2019 06:23 Капитан Марвел Скачать торрент  

ну такое себе. для детей 12+ зайдет супер.
имхоpb.wtf



05-06-2019 06:24 Капитан Марвел Скачать торрент  

обложка зачет капитан синяк )))pb.wtf



    Дорогой пользователь! Огромная просьба, поблагодарите релизера, оцените раздачу и оставьте свои комментарий, если Вы скачали Капитан Марвел через торрент бесплатно! Внесите свою лепту в развитие PiratBit!
    Комментировать посты могут только пользователи прошедшие не сложную регистрацию
    Показать сообщения:    

    Капитан Марвел через торрент
    Скачать бесплатно Капитан Марвел
    Капитан Марвел скачать торрент
    Капитан Марвел смотреть онлайн
    Cкачать фильм Капитан Марвел бесплатно
    Капитан Марвел скачать торрент в хорошем качестве
    Капитан Марвел смотреть онлайн бесплатно в хорошем качестве


    Вы не можете начинать темы
    Вы не можете отвечать на сообщения
    Вы не можете редактировать свои сообщения
    Вы не можете удалять свои сообщения
    Вы не можете голосовать в опросах
    Вы не можете прикреплять файлы к сообщениям
    Вы можете скачивать файлы