Мега распродажа FORZA HORIZON 4 ULTIMATE+ВСЕ DLC+ОНЛАЙН всего за 499р. 349 руб. (супер цена). Внимание количество ограничено!!!

Лицензия

30

iTunes

мы

iTunes

1

1 сезон

Чернобыль

1 сезон

Ральф против интернета

MVO

Покемон. Детектив Пикачу

8 сезон

Игра престолов

iTunes

1+1

ИГРА 18+

pack

ВАЖНО

!!Акция!!

Alien_RageХит недели

RePack

Resident Evil 21
pack

RePack

Metro:Exodus

!!Акция!!

Alien_Rage

RePack

fifa19

RePack

Assassins Creed: Odyssey

RePack

NEED FOR SPEED™ PAYBACK

3 сезон

9 сезон

Бесстыжие 9 сезон

Все сериалы

все сериалы на PB.wtf

RePack

FAR CRY 5
Ребята, катастрофически не хватает 2730р. для оплаты серверов за МАЙ (всвязи с блокировками трафик упал в 3 раза), 1-2р., выручайте.
  

ЛЕГО Фильм-2 / The Lego Movie 2: The Second Part (Майк Митчелл) [2019, мультфильм, мюзикл, фэнтези, боевик, комедия, приключения, семейный, BDRip 1080p] DUB (rus, ukr) [Лицензия] pb.wtf

ЛЕГО Фильм-2 через торрент pb.wtf

Раздают: 2 [ 156 KB/s ]
Размер: 10.27 GB | Добавлен: 12 д. назад | Торрент скачан:25 раз
Скачать  

05-06-2019 01:17 ЛЕГО Фильм-2 Скачать торрент  

ЛЕГО Фильм-2 / The Lego Movie 2: The Second Part
Год выпуска: 2019
Страна: Дания, Норвегия, Австралия, США
Жанр: мультфильм, мюзикл, фэнтези, боевик, комедия, приключения, семейный
Продолжительность: 01:47:09
Перевод: Дублированный | Лицензия
Субтитры: Русские (Forced, full), украинские (Forced), английские (SDH)

Режиссер: Майк Митчелл

rating

В ролях:

Крис Пратт (Emmet Brickowski / Rex Dangervest, озвучка), Элизабет Бэнкс (Wyldstyle / Lucy, озвучка), Уилл Арнетт (Batman, озвучка), Тиффани Хэддиш (Queen Watevra Wa'Nabi, озвучка), Стефани Беатриз (General Mayhem / Sweet Mayhem, озвучка), Элисон Бри (Unikitty / Ultrakatty, озвучка), Ник Офферман (MetalBeard, озвучка), Чарли Дэй (Benny, озвучка), Майя Рудольф (Mom), Уилл Феррелл (President Business / Dad), Джэдон Сэнд (Finn, озвучка), Бруклин Принс (Bianca, озвучка)
Описание:

Прошло пять лет с тех пор, когда все было прекрасно, и теперь герои столкнулись с новой невероятной угрозой - захватчиками LEGO DUPLO®, прибывшими из космоса и разрушающими всё на своем пути куда быстрее, чем герои могут построить вновь. В борьбе за восстановление гармонии во вселенной ЛЕГО Эммет, Люся, Бэтмен и их верные друзья отправятся в далекие неизведанные миры, в том числе необыкновенную галактику, где всегда царит музыка. Героям предстоит доказать свою смелость, находчивость и мастерство, а также понять, что каждый из них - особенный.

Качество: BDRip 1080p
Формат: MKV

Видео: MPEG-4 AVC, 1920x804, 11,6 Mbit/s, 23.976 fps
Аудио#1: 48 kHz, AC3, 5.1, 448 Kbps | Лицензия | RUS |
Аудио#2: 48 kHz, AC3, 2.0, 160 Kbps | iTunes | UKR |
Аудио#3: 48 kHz, DTS, 5.1, 1510 Kbps | Оригинал | ENG |
скриншот  скриншот  скриншот  скриншот  

скриншот  скриншот  скриншот  скриншот  

Общее
Уникальный идентификатор : 339923982832631716444160083601071952125 (0xFFBAFA4CDBE12AA8C73303AA303250FD)
Полное имя : The.Lego.Movie.2.The.Second.Part.2019.1080p.BluRay.DD5.1.x264.Rus.Ukr.Eng.mkv
Формат : Matroska
Версия формата : Version 4 / Version 2
Размер файла : 10,3 Гбайт
Продолжительность : 1 ч. 47 м.
Общий поток : 13,7 Мбит/сек
Название фильма : ЛЕГО Фильм-2 / The Lego Movie 2: The Second Part (2019)
Дата кодирования : UTC 2019-06-04 20:31:23
Программа кодирования : mkvmerge v27.0.0 ('Metropolis') 64-bit
Библиотека кодирования : libebml v1.3.6 + libmatroska v1.4.9

Видео
Идентификатор : 1
Формат : AVC
Формат/Информация : Advanced Video Codec
Профиль формата : High@L4.1
Настройки формата : CABAC / 5 Ref Frames
Параметр CABAC формата : Да
Параметр RefFrames формата : 5 кадров
Идентификатор кодека : V_MPEG4/ISO/AVC
Продолжительность : 1 ч. 47 м.
Битрейт : 11,6 Мбит/сек
Ширина : 1920 пикселей
Высота : 804 пикселя
Соотношение сторон : 2,40:1
Режим частоты кадров : Постоянный
Частота кадров : 23,976 (24000/1001) кадра/сек
Цветовое пространство : YUV
Субдискретизация насыщенности : 4:2:0
Битовая глубина : 8 бит
Тип развёртки : Прогрессивная
Бит/(Пиксели*Кадры) : 0.313
Размер потока : 8,68 Гбайт (85%)
Заголовок : WiKi
Библиотека кодирования : x264 core 130 r2273 b3065e6
Настройки программы : cabac=1 / ref=5 / deblock=1:-1:-1 / analyse=0x3:0x113 / me=umh / subme=11 / psy=1 / psy_rd=1.00:0.05 / mixed_ref=1 / me_range=32 / chroma_me=1 / trellis=2 / 8x8dct=1 / cqm=0 / deadzone=21,11 / fast_pskip=0 / chroma_qp_offset=-5 / threads=12 / lookahead_threads=2 / sliced_threads=0 / nr=0 / decimate=0 / interlaced=0 / bluray_compat=0 / constrained_intra=0 / bframes=8 / b_pyramid=2 / b_adapt=2 / b_bias=0 / direct=3 / weightb=1 / open_gop=0 / weightp=2 / keyint=250 / keyint_min=23 / scenecut=40 / intra_refresh=0 / rc=2pass / mbtree=0 / bitrate=11600 / ratetol=1.0 / qcomp=0.60 / qpmin=0 / qpmax=69 / qpstep=4 / cplxblur=20.0 / qblur=0.5 / ip_ratio=1.40 / pb_ratio=1.30 / aq=1:0.85
Язык : English
Default : Да
Forced : Нет

Аудио #1
Идентификатор : 2
Формат : AC-3
Формат/Информация : Audio Coding 3
Идентификатор кодека : A_AC3
Продолжительность : 1 ч. 47 м.
Вид битрейта : Постоянный
Битрейт : 448 Кбит/сек
Каналы : 6 каналов
Расположение каналов : Front: L C R, Side: L R, LFE
Частота : 48,0 КГц
Частота кадров : 31,250 кадров/сек (1536 SPF)
Битовая глубина : 16 бит
Метод сжатия : С потерями
Размер потока : 343 Мбайт (3%)
Заголовок : DUB | Лицензия
Язык : Russian
Default : Да
Forced : Нет

Аудио #2
Идентификатор : 3
Формат : AC-3
Формат/Информация : Audio Coding 3
Идентификатор кодека : A_AC3
Продолжительность : 1 ч. 47 м.
Вид битрейта : Постоянный
Битрейт : 160 Кбит/сек
Каналы : 2 канала
Расположение каналов : Front: L R
Частота : 48,0 КГц
Частота кадров : 31,250 кадров/сек (1536 SPF)
Битовая глубина : 16 бит
Метод сжатия : С потерями
Размер потока : 123 Мбайт (1%)
Заголовок : iTunes
Язык : Ukrainian
Default : Нет
Forced : Нет

Аудио #3
Идентификатор : 4
Формат : DTS
Формат/Информация : Digital Theater Systems
Идентификатор кодека : A_DTS
Продолжительность : 1 ч. 47 м.
Вид битрейта : Постоянный
Битрейт : 1509 Кбит/сек
Каналы : 6 каналов
Расположение каналов : Front: L C R, Side: L R, LFE
Частота : 48,0 КГц
Частота кадров : 93,750 кадра/сек (512 SPF)
Битовая глубина : 16 бит
Метод сжатия : С потерями
Размер потока : 1,13 Гбайт (11%)
Заголовок : Original
Язык : English
Default : Нет
Forced : Нет

Текст #1
Идентификатор : 5
Формат : UTF-8
Идентификатор кодека : S_TEXT/UTF8
Идентификатор кодека/Информация : UTF-8 Plain Text
Продолжительность : 1 ч. 45 м.
Битрейт : 5 бит/сек
ElementCount : 41
Размер потока : 3,90 Кбайт (0%)
Заголовок : Forced
Язык : Russian
Default : Да
Forced : Да

Текст #2
Идентификатор : 6
Формат : UTF-8
Идентификатор кодека : S_TEXT/UTF8
Идентификатор кодека/Информация : UTF-8 Plain Text
Продолжительность : 1 ч. 46 м.
Битрейт : 128 бит/сек
ElementCount : 1905
Размер потока : 100 Кбайт (0%)
Заголовок : Full
Язык : Russian
Default : Нет
Forced : Нет

Текст #3
Идентификатор : 7
Формат : UTF-8
Идентификатор кодека : S_TEXT/UTF8
Идентификатор кодека/Информация : UTF-8 Plain Text
Продолжительность : 1 ч. 32 м.
Битрейт : 5 бит/сек
ElementCount : 40
Размер потока : 3,73 Кбайт (0%)
Заголовок : Forced
Язык : Ukrainian
Default : Нет
Forced : Нет

Текст #4
Идентификатор : 8
Формат : UTF-8
Идентификатор кодека : S_TEXT/UTF8
Идентификатор кодека/Информация : UTF-8 Plain Text
Продолжительность : 1 ч. 46 м.
Битрейт : 90 бит/сек
ElementCount : 2152
Размер потока : 70,2 Кбайт (0%)
Заголовок : Full
Язык : English
Default : Нет
Forced : Нет

Меню
00:00:00.000 : en:1
00:04:14.000 : en:2
00:12:34.000 : en:3
00:15:08.000 : en:4
00:21:56.000 : en:5
00:29:49.000 : en:6
00:36:21.000 : en:7
00:44:46.000 : en:8
00:50:49.000 : en:9
00:57:04.000 : en:10
01:01:06.000 : en:11
01:09:47.000 : en:12
01:17:30.000 : en:13
01:21:57.000 : en:14
01:26:48.000 : en:15
01:34:00.000 : en:16
01:38:28.000 : en:17

pb.wtf



Скачать ЛЕГО Фильм-2 через торрент https://i110.fastpic.ru/big/2019/0602/17/2d648763ff337dcbf1f55aa288773217.png Скачать фильм ЛЕГО Фильм-2 через торрент бесплантно в хорошем качестве Описание: Прошло пять лет с тех пор, когда все было прекрасно, и теперь герои столкнулись с новой невероятной угрозой - захватчиками LEGO ... 10 10 4
Торрент: Зарегистрирован [2019-06-05 01:17] · скачан: 25 раз
Статус: √ проверено
Размер: 10.27 GB
Как cкачать? Как скачать ЛЕГО Фильм-2 через торрент | qTorrent

% Раздел Тема Автор DL S | L
Зарубежные Мультфильмы (BDRip 1080p, 720p, Blu-ray, BD-Remux) [ 5.63 GB ] ЛЕГО Фильм-2 / The Lego Movie 2: The Second Part [2019 мультфильм мюзикл BDRip 720p] DUB [] bober100 Скачать
10 | 0
3D Мультфильмы [ 6.95 GB ] ЛЕГО Фильм-2 3Д / The Lego Movie 2: The Second Part 3D [2019 мультфильм мюзикл BDRip 1080p] [Half OverUnder] DUB [] bober100 Скачать
1 | 0
Зарубежные Мультфильмы (BDRip 1080p, 720p, Blu-ray, BD-Remux) [ 44.97 GB ] ЛЕГО Фильм-2 / The Lego Movie 2: The Second Part [2019 мультфильм мюзикл Blu-ray EUR 1080p] DUB [] bober100 Скачать
1 | 0
Иностранные мультфильмы [ 1.67 GB ] ЛЕГО Фильм-2 / The Lego Movie 2: The Second Part [2019 мультфильм мюзикл BDRip-AVC] DUB [] bober100 Скачать
4 | 0
Иностранные мультфильмы [ 1.46 GB ] ЛЕГО Фильм-2 / The Lego Movie 2: The Second Part [2019 мультфильм мюзикл BDRip] DUB [ Blu-Ray EUR] bober100 Скачать
8 | 0
3D Мультфильмы [ 10.47 GB ] ЛЕГО Фильм 2 в 3Д / The Lego Movie 2: The Second Part 3D [2019 мультфильм мюзикл прик BDRip 1080p] OverUnder / Вертикальная стереопара () serega768 Скачать
1 | 0
Зарубежные Мультфильмы (BDRip 1080p, 720p, Blu-ray, BD-Remux) [ 19.89 GB ] ЛЕГО Фильм-2 / The Lego Movie 2: The Second Part [2019 мультфильм мюзикл BD Remux 1080p] DUB bober100 Скачать
3 | 0


>> Регистрируемся здесь <<






Отзывы и комментарии о схеме читаем и пишем здесь: ---> Отзывы и комментарии о схеме

Новые благодарочки в телеграм довольных пользователей:
скриншот   скриншот   скриншот   скриншот   скриншот
    Дорогой пользователь! Огромная просьба, поблагодарите релизера, оцените раздачу и оставьте свои комментарий, если Вы скачали ЛЕГО Фильм-2 через торрент бесплатно! Внесите свою лепту в развитие PiratBit!
    Комментировать посты могут только пользователи прошедшие не сложную регистрацию
    Показать сообщения:    

    ЛЕГО Фильм-2 через торрент
    Скачать бесплатно ЛЕГО Фильм-2
    ЛЕГО Фильм-2 скачать торрент
    ЛЕГО Фильм-2 смотреть онлайн
    Cкачать фильм ЛЕГО Фильм-2 бесплатно
    ЛЕГО Фильм-2 скачать торрент в хорошем качестве
    ЛЕГО Фильм-2 смотреть онлайн бесплатно в хорошем качестве


    Вы не можете начинать темы
    Вы не можете отвечать на сообщения
    Вы не можете редактировать свои сообщения
    Вы не можете удалять свои сообщения
    Вы не можете голосовать в опросах
    Вы не можете прикреплять файлы к сообщениям
    Вы можете скачивать файлы