новый адрес
Ссылка на приватное зеркало всего за 1$. Внимание количество ограничено!!!

iTunes

1+1

iTunes

мы

WEB-DL

1

iTunes

Чернобыль

iTunes

Ральф против интернета

Лицензия

ПШазам

Лицензия

Оно 2

Лицензия

30
pack

Вам бонус

ВАЖНО

!!Акция!!

Alien_RageХит недели

RePack

Resident Evil 21

ИГРА 18+

pack

RePack

jed

!!Акция!!

Alien_Rage

RePack

fifa19

RePack

Assassins Creed: Odyssey

RePack

NEED FOR SPEED™ PAYBACK

3 сезон

9 сезон

Бесстыжие 9 сезон

Все сериалы

все сериалы на PB.wtf

RePack

FAR CRY 5
Ребята, катастрофически не хватает 1900р. для оплаты серверов за Октябрь (всвязи с блокировками трафик упал в 3 раза), 1-2р., выручайте.
  

Коридор бессмертия (Федор Попов) [2019, драма, военный, история, WEB-DL 1080p] [iTunes] pb.wtf

Коридор бессмертия через торрент pb.wtf

Раздают: 1 [ 0 KB/s ]
Размер: 4.86 GB | Добавлен: 6 мес. назад | Торрент скачан:366 раз
Скачать  

05-06-2019 09:26 Коридор бессмертия Скачать торрент  

Коридор бессмертия Год выпуска: 2019
Страна: Россия
Жанр: драма, военный, история
Продолжительность: 02:19:56
Перевод: Не требуется | iTunes
Субтитры: отсутствуют

Режиссер: Федор Попов

rating

В ролях:

Артем Алексеев, Анастасия Цибизова, Игорь Ясулович, Артём Мельничук, Александр Яценко, Дарья Екамасова, Анатолий Горячев, Александр Обласов, Светлана Смирнова-Кацагаджиева, Тагир Рахимов

Описание:

Вчерашняя ленинградская школьница Маша Яблочкина после лютой блокадной зимы 1941-1942 года приходит на железнодорожные курсы в надежде выжить и набраться сил. Оттуда девушку отправляют на строительство Шлиссельбургской магистрали, соединяющей город с Большой землей и находящейся в прямой видимости немецкой артиллерии. Так героиня попадает в 48-ю паровозную колонну особого резерва НКПС, которой ценой смертельного риска предстоит доставить в Ленинград 75% всех грузов и военного снаряжения.

Качество: WEB-DL 1080p
Формат: MKV

Видео: MPEG-4 AVC, 4485 Кбит/с, 1908x792
Аудио: 48 kHz, AC3 Dolby Digital, 3/2 (L,C,R,l,r) + LFE ch, ~384 kbps
скриншот  скриншот  скриншот  скриншот  скриншот  

General
Unique ID : 208145791207937783787069866859213402047 (0x9C976BD452E49404B6691180F1C8AFBF)
Complete name : D:\Koridor.bessmertiya.2019.WEB-DL.1080p.ELEKTRI4KA.UNIONGANG.mkv
Format : Matroska
Format version : Version 2
File size : 4.86 GiB
Duration : 2 h 19 min
Overall bit rate : 4 968 kb/s
Movie name : Koridor.bessmertiya.2019.ELEKTRI4KA.UNIONGANG.mkv
Encoded date : UTC 2019-06-04 20:50:32
Writing application : mkvmerge v7.8.0 ('River Man') 32bit built on Apr 3 2015 12:11:22
Writing library : libebml v1.3.1 + libmatroska v1.4.2

Video
ID : 2
Format : AVC
Format/Info : Advanced Video Codec
Format profile : High@L4
Format settings : CABAC / 5 Ref Frames
Format settings, CABAC : Yes
Format settings, ReFrames : 5 frames
Codec ID : V_MPEG4/ISO/AVC
Duration : 2 h 19 min
Bit rate : 4 485 kb/s
Width : 1 908 pixels
Height : 792 pixels
Display aspect ratio : 2.40:1
Frame rate mode : Constant
Frame rate : 23.976 (24000/1001) FPS
Color space : YUV
Chroma subsampling : 4:2:0
Bit depth : 8 bits
Scan type : Progressive
Bits/(Pixel*Frame) : 0.124
Stream size : 4.38 GiB (90%)
Language : English
Default : Yes
Forced : No
Color range : Limited
Color primaries : BT.709
Transfer characteristics : BT.709
Matrix coefficients : BT.709

Audio
ID : 1
Format : AC-3
Format/Info : Audio Coding 3
Codec ID : A_AC3
Duration : 2 h 19 min
Bit rate mode : Constant
Bit rate : 384 kb/s
Channel(s) : 6 channels
Channel positions : Front: L C R, Side: L R, LFE
Sampling rate : 48.0 kHz
Frame rate : 31.250 FPS (1536 SPF)
Bit depth : 16 bits
Compression mode : Lossy
Stream size : 384 MiB (8%)
Title : RUS.ELEKTRI4KA.UNIONGANG
Language : Russian
Service kind : Complete Main
Default : Yes
Forced : No

Menu
00:00:00.000 : en:1
00:08:12.000 : en:2
00:16:35.000 : en:3
00:26:19.000 : en:4
00:36:34.000 : en:5
00:46:23.000 : en:6
00:57:21.000 : en:7
01:06:59.000 : en:8
01:17:37.000 : en:9
01:28:13.000 : en:10
01:37:32.000 : en:11
01:47:31.000 : en:12
01:57:53.000 : en:13
02:07:59.000 : en:14
02:15:30.000 : en:15[/pre]

pb.wtf



Скачать Коридор бессмертия через торрент http://i110.fastpic.ru/big/2019/0516/1b/6784b3d22f6e30dacce7b2e259d42c1b.png Скачать фильм Коридор бессмертия через торрент бесплантно в хорошем качестве Описание: Вчерашняя ленинградская школьница Маша Яблочкина после лютой блокадной зимы 1941-1942 года приходит на железнодорожные курсы в ... 9.9 10 13
Info! Золотая раздача, скачанное не засчитывается.
Торрент: Зарегистрирован [2019-06-05 09:26] · скачан: 366 раз
Статус: √ проверено
Размер: 4.86 GB
Как cкачать? Как скачать Коридор бессмертия через торрент | qTorrent

% Раздел Тема Автор DL S | L
Наши новые фильмы 2018-2019 [ 802 MB ] Коридор бессмертия [2019 военный история WEB-DLRip] bober100 Скачать
4 | 0
Наши новые фильмы 2018-2019 [ 2.17 GB ] Коридор бессмертия [2019 военный история WEB-DLRip-AVC] bober100 Скачать
3 | 0
Наши новые фильмы 2018-2019 [ 2.18 GB ] Коридор бессмертия [2019 военный история WEB-DLRip] bober100 Скачать
1 | 0
Наши фильмы (HD, WEB-DL 720p, 1080p) [ 4.32 GB ] Коридор бессмертия [2019 военный история WEB-DL 720p] bober100 Скачать
5 | 0
Наши новые фильмы 2018-2019 [ 1.46 GB ] Коридор бессмертия [2019 военный история WEB-DLRip] killermax2013 Скачать
8 | 0


Последний раз редактировалось: bober100 (2019-06-06 10:02), всего редактировалось 2 раз(а)

28-11-2019 20:33  

Отключить всю рекламу на сайте

05-06-2019 14:13 Коридор бессмертия Скачать торрент  

качнем,заценимpb.wtf



05-06-2019 18:12 Коридор бессмертия Скачать торрент  

фильм нереально крутой! смотрели на одном дыхании! всем советую!
золочу раздачу!pb.wtf



07-06-2019 17:37 Коридор бессмертия Скачать торрент  

Посмотрел! Оценка - 10. Правда чувствуется. Обалденный фильм. Только просьба Генералов чеканутых районов в Плащах не смотреть. Лохи пусть идут ЛЕСОМ. Я за БЕССМЕРТНЫЙ ПОЛК!!! Нормальные люди, не те, которые сейчас, Мужики, в колготках ходят, смотрите.pb.wtf



    Дорогой пользователь! Огромная просьба, поблагодарите релизера, оцените раздачу и оставьте свои комментарий, если Вы скачали Коридор бессмертия через торрент бесплатно! Внесите свою лепту в развитие PiratBit!
    Комментировать посты могут только пользователи прошедшие не сложную регистрацию
    Показать сообщения:    

    Коридор бессмертия через торрент
    Скачать бесплатно Коридор бессмертия
    Коридор бессмертия скачать торрент
    Коридор бессмертия смотреть онлайн
    Cкачать фильм Коридор бессмертия бесплатно
    Коридор бессмертия скачать торрент в хорошем качестве
    Коридор бессмертия смотреть онлайн бесплатно в хорошем качестве


    Вы не можете начинать темы
    Вы не можете отвечать на сообщения
    Вы не можете редактировать свои сообщения
    Вы не можете удалять свои сообщения
    Вы не можете голосовать в опросах
    Вы не можете прикреплять файлы к сообщениям
    Вы можете скачивать файлы