Ссылка на приватное зеркало нашего сайта всего за 1$. Внимание количество ограничено!!!

2 сезон

iTunes

1 сезон

1

2 сезон

2 сезон

iTunes

1 сезон

RePack

30

Ultimate

ВАЖНО

ИГРА 18+

pack

RePack

MK11
pack

Забери бонус

RePack

jed

!!Акция!!

Alien_Rage

RePack

fifa19

RePack

Assassins Creed: Odyssey

RePack

NEED FOR SPEED™ PAYBACK

4 сезон

9 сезон

Бесстыжие 9 сезон

Все сериалы

все сериалы на PB.wtf

RePack

FAR CRY 5
  

Родители лёгкого поведения / Drunk Parents (Фред Вульф) [2019, комедия, BD Remux 1080p] DUB [Лицензия R5] +MVO [HDrezka Studio] pb.wtf

Родители лёгкого поведения через торрент pb.wtf

Размер: 22.71 GB | Добавлен: 1 год 5 мес. назад | Торрент скачан:11 раз
Скачать  

06-06-2019 02:44 Родители лёгкого поведения Скачать торрент  

Родители лёгкого поведения / Drunk Parents
Год выпуска: 2019
Страна: США
Жанр: комедия
Продолжительность: 01:37:06
Перевод:

#1: Дублированный | Лицензия R5
#2: Профессиональный многоголосый | HDRezka Studio

Субтитры: Английские

Режиссер: Фред Вульф

rating

В ролях:

Сальма Хайек (Nancy Teagarten), Алек Болдуин (Frank Teagarten), Джо Манганьелло (Bob Donnelly), Джим Гэффиган (Carl Mancini), Трит Уильямс (Dan Henderson), Мишель Вентимилла (Rachel Teagarten), Наталья Сиглиути (Betty Donnelly), Колин Куинн (Ryan the Bum #2), Эдди Швайгхардт (Tristan Donnelly), Джереми Шайндер (Trey Donnelly), Бен Платт (Jason Johnson), Оливия Луккарди (Jessie)
Описание:

Семейная пара Фрэнк и Нэнси пытаются скрыть от друзей и дочери свой полный финансовый крах. Для этого они идут на всё, даже сдают в аренду чужой особняк. Но получится ли у двух горе-авантюристов провернуть свои невероятные махинации? Ведь каждый их шаг - отличный повод откупорить новую бутылку...

Качество: BD Remux 1080p
Формат: MKV

Видео: MPEG-4 AVC, 1920x1080, 29.2 Mbit/s, 23.976 fps
Аудио#1: 48 kHz, AC3, 5.1, 448 Kbps | Дублированный | RUS |
Аудио#2: 48 kHz, AC3, 2.0, 192 Kbps | Профессиональный многоголосый | RUS |
Аудио#3: 48 kHz, TrueHD, 5.1, 2927 Kbps | Оригинал | ENG |
Аудио#4: 48 kHz, AC3, 5.1, 640 Kbps | Оригинал | ENG |
скриншот  скриншот  скриншот  скриншот  скриншот  

General
Unique ID : 160671755409081321168853691591180512762 (0x78E04126A5B61FFA56AA228C014D6DFA)
Complete name : D:Video111Drunk.Parents.2019.BDREMUX.1080p.seleZen.mkv
Format : Matroska
Format version : Version 4
File size : 22.7 GiB
Duration : 1 h 37 min
Overall bit rate mode : Variable
Overall bit rate : 33.5 Mb/s
Movie name : Drunk Parents 2019 from селезень
Encoded date : UTC 2019-06-06 01:27:49
Writing application : mkvmerge v33.1.0 ('Primrose') 64-bit
Writing library : libebml v1.3.7 + libmatroska v1.5.0

Video
ID : 1
Format : AVC
Format/Info : Advanced Video Codec
Format profile : High@L4.1
Format settings : CABAC / 4 Ref Frames
Format settings, CABAC : Yes
Format settings, Reference : 4 frames
Codec ID : V_MPEG4/ISO/AVC
Duration : 1 h 37 min
Bit rate mode : Variable
Bit rate : 29.2 Mb/s
Maximum bit rate : 35.0 Mb/s
Width : 1 920 pixels
Height : 1 080 pixels
Display aspect ratio : 16:9
Frame rate mode : Constant
Frame rate : 23.976 (24000/1001) FPS
Standard : NTSC
Color space : YUV
Chroma subsampling : 4:2:0
Bit depth : 8 bits
Scan type : Progressive
Bits/(Pixel*Frame) : 0.587
Stream size : 19.8 GiB (87%)
Language : English
Default : Yes
Forced : No
Color range : Limited
Color primaries : BT.709
Transfer characteristics : BT.709
Matrix coefficients : BT.709

Audio #1
ID : 2
Format : AC-3
Format/Info : Audio Coding 3
Commercial name : Dolby Digital
Codec ID : A_AC3
Duration : 1 h 37 min
Bit rate mode : Constant
Bit rate : 448 kb/s
Channel(s) : 6 channels
Channel layout : L R C LFE Ls Rs
Sampling rate : 48.0 kHz
Frame rate : 31.250 FPS (1536 SPF)
Bit depth : 16 bits
Compression mode : Lossy
Stream size : 311 MiB (1%)
Title : Dub [License R5]
Language : Russian
Service kind : Complete Main
Default : Yes
Forced : Yes

Audio #2
ID : 3
Format : AC-3
Format/Info : Audio Coding 3
Commercial name : Dolby Digital
Codec ID : A_AC3
Duration : 1 h 37 min
Bit rate mode : Constant
Bit rate : 192 kb/s
Channel(s) : 2 channels
Channel layout : L R
Sampling rate : 48.0 kHz
Frame rate : 31.250 FPS (1536 SPF)
Bit depth : 16 bits
Compression mode : Lossy
Stream size : 133 MiB (1%)
Title : MVO [HDRezka Studio]
Language : Russian
Service kind : Complete Main
Default : No
Forced : No

Audio #3
ID : 4
Format : MLP FBA
Format/Info : Meridian Lossless Packing FBA
Commercial name : Dolby TrueHD
Codec ID : A_TRUEHD
Duration : 1 h 37 min
Bit rate mode : Variable
Bit rate : 2 927 kb/s
Maximum bit rate : 4 920 kb/s
Channel(s) : 6 channels
Channel layout : L R C LFE Ls Rs
Sampling rate : 48.0 kHz
Frame rate : 1 200.000 FPS (40 SPF)
Compression mode : Lossless
Stream size : 1.98 GiB (9%)
Title : Original
Language : English
Default : No
Forced : No

Audio #4
ID : 5
Format : AC-3
Format/Info : Audio Coding 3
Commercial name : Dolby Digital
Codec ID : A_AC3
Duration : 1 h 37 min
Bit rate mode : Constant
Bit rate : 640 kb/s
Channel(s) : 6 channels
Channel layout : L R C LFE Ls Rs
Sampling rate : 48.0 kHz
Frame rate : 31.250 FPS (1536 SPF)
Bit depth : 16 bits
Compression mode : Lossy
Stream size : 445 MiB (2%)
Language : English
Service kind : Complete Main
Default : No
Forced : No

Text #1
ID : 6
Format : UTF-8
Codec ID : S_TEXT/UTF8
Codec ID/Info : UTF-8 Plain Text
Duration : 1 h 30 min
Bit rate : 87 b/s
Count of elements : 1890
Stream size : 58.0 KiB (0%)
Title : Full
Language : English
Default : No
Forced : No

Text #2
ID : 7
Format : UTF-8
Codec ID : S_TEXT/UTF8
Codec ID/Info : UTF-8 Plain Text
Duration : 1 h 30 min
Bit rate : 93 b/s
Count of elements : 2054
Stream size : 62.1 KiB (0%)
Title : SDH
Language : English
Default : No
Forced : No

Menu
00:00:00.000 : en:Chapter 01
00:13:19.340 : en:Chapter 02
00:26:02.478 : en:Chapter 03
00:38:53.540 : en:Chapter 04
00:52:10.878 : en:Chapter 05
01:05:11.658 : en:Chapter 06
01:17:33.274 : en:Chapter 07
01:30:34.888 : en:Chapter 08

pb.wtf



Скачать Родители лёгкого поведения через торрент https://a.radikal.ru/a37/1905/1a/e5949822b8b8.png Скачать фильм Родители лёгкого поведения через торрент бесплантно в хорошем качестве Описание: Семейная пара Фрэнк и Нэнси пытаются скрыть от друзей и дочери свой полный финансовый крах. Для этого они идут на всё, даже сдают ... 10 10 2
Торрент: Зарегистрирован [2019-06-06 02:44] · скачан: 11 раз
Статус: √ проверено
Размер: 22.71 GB
Как cкачать? Как скачать Родители лёгкого поведения через торрент | qTorrent

% Раздел Тема Автор DL S | L
Фильмы 2019-2020 [DVDrip, WEB-DLRip, HDrip] (DUB, MVO) [ 1.46 GB ] Родители лёгкого поведения / Drunk Parents [2019 BDRip] - [ R5] Twi7ter Скачать
47 | 0
Фильмы [HD 720p, 1080p] (Хороший звук DUB, MVO) [ 5.26 GB ] Родители лёгкого поведения / Drunk Parents [2019 BDRip 720p] DUB [ R5] +MVO [HDrezka Studio] bober100 Скачать
1 | 0
Фильмы [HD 720p, 1080p] (Хороший звук DUB, MVO) [ 11.7 GB ] Родители лёгкого поведения / Drunk Parents [2019 BDRip 1080p] DUB [ R5] +MVO [HDrezka Studio] bober100 Скачать
1 | 0
Фильмы 2019-2020 [DVDrip, WEB-DLRip, HDrip] (DUB, MVO) [ 1.38 GB ] Родители лёгкого поведения / Drunk Parents [2019 WEB-DLRip] bober100 Скачать
2 | 0
Фильмы (WEB-DL 720p, 1080p) [ 3.69 GB ] Родители лёгкого поведения / Drunk Parents [2019 WEB-DL 1080p] bober100 Скачать
1 | 0
Фильмы (WEB-DL 720p, 1080p) [ 3.03 GB ] Родители лёгкого поведения / Drunk Parents [2019 WEB-DL 720p] bober100 Скачать
2 | 0

28-11-2019 20:33  

Отключить всю рекламу на сайте

    Дорогой пользователь! Огромная просьба, поблагодарите релизера, оцените раздачу и оставьте свои комментарий, если Вы скачали Родители лёгкого поведения через торрент бесплатно! Внесите свою лепту в развитие PiratBit!
    Комментировать посты могут только пользователи прошедшие не сложную регистрацию
    Показать сообщения:    

    Родители лёгкого поведения через торрент
    Скачать бесплатно Родители лёгкого поведения
    Родители лёгкого поведения скачать торрент
    Родители лёгкого поведения смотреть онлайн
    Cкачать фильм Родители лёгкого поведения бесплатно
    Родители лёгкого поведения скачать торрент в хорошем качестве
    Родители лёгкого поведения смотреть онлайн бесплатно в хорошем качестве


    Вы не можете начинать темы
    Вы не можете отвечать на сообщения
    Вы не можете редактировать свои сообщения
    Вы не можете удалять свои сообщения
    Вы не можете голосовать в опросах
    Вы не можете прикреплять файлы к сообщениям
    Вы можете скачивать файлы