2 сезон

iTunes

WEBRip

1

2 сезон

iTunes

1 сезон

1 сезон

RePack

30

Новинка

ВАЖНО

ИГРА 18+

pack

RePack

MK11
pack

Легкие деньги

RePack

jed

RePack

fifa19

RePack

RDR2

RePack

NEED FOR SPEED™ PAYBACK

4 сезон

9 сезон

Бесстыжие 9 сезон

Все сериалы

все сериалы на PB.wtf

RePack

FAR CRY 5

Anonymous, добрый день, мы не успеваем собрать деньги на оплату серверов за февраль, помогите нам пожалуйста в это трудное время. В качестве благодарности мы отключим Вам всю рекламу на сайте (укажите свой ник в строку Ваше имя)!

×
  
Magnet ссылка

Коридор бессмертия (Федор Попов) [2019, драма, военный, история, BDRip-AVC] [GER Transfer / Лицензия] pb.wtf

Коридор бессмертия через торрент pb.wtf

Размер: 2.74 GB | Добавлен: 5 мес. 19 д. назад | Торрент скачан:54 раза
Скачать  

06-06-2019 04:59 Коридор бессмертия Скачать торрент  

Коридор бессмертия Год выпуска: 2019
Страна: Россия
Студия: Студия Стелла
Жанр: драма, военный, история
Продолжительность: 02:19:47
Перевод: Не требуется | Лицензия Blu-Ray GER
Субтитры: Русские (Full)

Режиссер: Федор Попов

rating

В ролях: Артем Алексеев, Анастасия Цибизова, Игорь Ясулович, Артём Мельничук, Александр Яценко, Дарья Екамасова, Анатолий Горячев, Александр Обласов, Светлана Смирнова-Кацагаджиева, Тагир Рахимов

Описание: Вчерашняя ленинградская школьница Маша Яблочкина после лютой блокадной зимы 1941-1942 года приходит на железнодорожные курсы в надежде выжить и набраться сил. Оттуда девушку отправляют на строительство Шлиссельбургской магистрали, соединяющей город с Большой землей и находящейся в прямой видимости немецкой артиллерии. Так героиня попадает в 48-ю паровозную колонну особого резерва НКПС, которой ценой смертельного риска предстоит доставить в Ленинград 75% всех грузов и военного снаряжения.

Качество: BDRip-AVC | GER Transfer
Формат: MKV

Видео: 1024x428 (2, 40:1), 24 fps, MPEG-4 AVC, 2355 Кbps avg, 0.224 bit/pixel
Аудио: AC3, 48 kHz, 6 ch, ~448.00 kbps avg | русский | Blu-Ray GER
скриншот  скриншот  скриншот  скриншот  скриншот  

Общее
Уникальный идентификатор : 103887606065553654744200453788935342650 (0x4E28066F64D44E33F8E8EDA71BBF4A3A)
Полное имя : Koridor.bessmertiya.2019.BDRip.2.74Gb.x264.mkv
Формат : Matroska
Версия формата : Version 4
Размер файла : 2, 74 Гбайт
Продолжительность : 2 ч. 19 м.
Общий поток : 2 803 Кбит/сек
Название фильма : Коридор бессмертия (2019)
Дата кодирования : UTC 2020-09-18 00:25:11
Программа кодирования : mkvmerge v47.0.0 ('Black Flag') 64-bit
Библиотека кодирования : libebml v1.3.10 + libmatroska v1.5.2
Обложка : Yes
Attachments : cover.jpg

Видео
Идентификатор : 1
Формат : AVC
Формат/Информация : Advanced Video Codec
Профиль формата : High@L4.1
Настройки формата : CABAC / 11 Ref Frames
Параметр CABAC формата : Да
Параметр RefFrames формата : 11 кадров
Идентификатор кодека : V_MPEG4/ISO/AVC
Продолжительность : 2 ч. 19 м.
Битрейт : 2 355 Кбит/сек
Ширина : 1 024 пикселя
Высота : 428 пикселей
Соотношение сторон : 2, 40:1
Режим частоты кадров : Постоянный
Частота кадров : 24, 000 кадра/сек
Цветовое пространство : YUV
Субдискретизация насыщенности : 4:2:0
Битовая глубина : 8 бит
Тип развёртки : Прогрессивная
Бит/(Пиксели*Кадры) : 0.224
Размер потока : 2, 30 Гбайт (84%)
Заголовок : #stillet
Библиотека кодирования : x264 core 152 r2851bm ba24899
Настройки программы : cabac=1 / ref=11 / deblock=1:-2:-2 / analyse=0x3:0x113 / me=umh / subme=11 / psy=1 / psy_rd=1.00:0.15 / mixed_ref=1 / me_range=32 / chroma_me=1 / trellis=2 / 8x8dct=1 / cqm=0 / deadzone=21, 11 / fast_pskip=0 / chroma_qp_offset=-3 / threads=8 / lookahead_threads=3 / sliced_threads=0 / nr=0 / decimate=0 / interlaced=0 / bluray_compat=0 / constrained_intra=0 / bframes=9 / b_pyramid=2 / b_adapt=2 / b_bias=0 / direct=3 / weightb=1 / open_gop=0 / weightp=2 / keyint=240 / keyint_min=24 / scenecut=40 / intra_refresh=0 / rc=2pass / mbtree=0 / bitrate=2355 / ratetol=1.0 / qcomp=0.60 / qpmin=0 / qpmax=69 / qpstep=4 / cplxblur=20.0 / qblur=0.5 / ip_ratio=1.40 / pb_ratio=1.30 / aq=1:1.00
Язык : German
Default : Да
Forced : Нет

Аудио
Идентификатор : 2
Формат : AC-3
Формат/Информация : Audio Coding 3
Коммерческое название : Dolby Digital
Идентификатор кодека : A_AC3
Продолжительность : 2 ч. 19 м.
Вид битрейта : Постоянный
Битрейт : 448 Кбит/сек
Каналы : 6 каналов
Channel layout : L R C LFE Ls Rs
Частота : 48, 0 КГц
Частота кадров : 31, 250 кадров/сек (1536 SPF)
Метод сжатия : С потерями
Размер потока : 448 Мбайт (16%)
Заголовок : Blu-ray GER
Язык : Russian
Service kind : Complete Main
Default : Да
Forced : Да

Текст
Идентификатор : 3
Формат : UTF-8
Идентификатор кодека : S_TEXT/UTF8
Идентификатор кодека/Информация : UTF-8 Plain Text
Продолжительность : 2 ч. 13 м.
Битрейт : 81 бит/сек
Count of elements : 1198
Размер потока : 79, 6 Кбайт (0%)
Заголовок : Full
Язык : Russian
Default : Да
Forced : Нет

Меню
00:00:00.000 : de:Глава 01
00:12:19.000 : de:Глава 02
00:24:04.917 : de:Глава 03
00:36:31.208 : de:Глава 04
00:50:11.708 : de:Глава 05
01:01:51.750 : de:Глава 06
01:11:27.083 : de:Глава 07
01:25:30.667 : de:Глава 08
01:36:20.167 : de:Глава 09
01:46:15.708 : de:Глава 10
01:57:45.750 : de:Глава 11
02:08:57.500 : de:Глава 12

pb.wtf



Скачать Коридор бессмертия через торрент https://b.radikal.ru/b12/1906/69/77eb2fbab833.png Скачать фильм Коридор бессмертия через торрент бесплантно в хорошем качестве Описание: Вчерашняя ленинградская школьница Маша Яблочкина после лютой блокадной зимы 1941-1942 года приходит на железнодорожные курсы в ... 9.8 10 8
Торрент: Зарегистрирован [2020-09-18 03:39] · скачан: 54 раз
Статус: √ проверено
Размер: 2.74 GB
Как cкачать? Как скачать Коридор бессмертия через торрент | UTorrent

% Раздел Тема Автор DL S | L
Наши фильмы (HD, WEB-DL 720p, 1080p) [ 4.86 GB ] Коридор бессмертия [2019 военный история WEB-DL 1080p] bober100 Скачать
2 | 0
Наши фильмы 2018-2019 [ 2.18 GB ] Коридор бессмертия [2019 военный история BDRip] [Русский] [] Twi7ter Скачать
11 | 2
Наши фильмы 2018-2019 [ 1.47 GB ] Коридор бессмертия [2019 военный история BDRip] [Русский] [] Twi7ter Скачать
27 | 1
Наши фильмы (HD, WEB-DL 720p, 1080p) [ 4.3 GB ] Коридор бессмертия [2019 военный история BDRip 720p] GER Transfer [] - ExKinoRay Enigma2010 Скачать
10 | 0
Наши фильмы (Blu-ray, BD-Remux, HDDVD) [ 18.3 GB ] Коридор бессмертия [2019 военный история BD Remux 1080p] [GER Transfer / ] bober100 Скачать
1 | 0
Наши фильмы 2018-2019 [ 749 MB ] Коридор бессмертия [2019 военный история HDRip-AVC] [GER Transfer] [] от MediaBit Lithuania Скачать
1 | 0
Наши фильмы 2018-2019 [ 1.46 GB ] Коридор бессмертия [2019 военный история BDRip] [GER Transfer / ] bober100 Скачать
3 | 0

28-11-2019 20:33  

Отключить всю рекламу на сайте

    Дорогой пользователь! Огромная просьба, поблагодарите релизера, оцените раздачу и оставьте свои комментарий, если Вы скачали Коридор бессмертия через торрент бесплатно! Внесите свою лепту в развитие PiratBit!
    Комментировать посты могут только пользователи прошедшие не сложную регистрацию
    Показать сообщения:    

    Коридор бессмертия через торрент
    Скачать бесплатно Коридор бессмертия
    Коридор бессмертия скачать торрент
    Коридор бессмертия смотреть онлайн
    Cкачать фильм Коридор бессмертия бесплатно
    Коридор бессмертия скачать торрент в хорошем качестве
    Коридор бессмертия смотреть онлайн бесплатно в хорошем качестве


    Вы не можете начинать темы
    Вы не можете отвечать на сообщения
    Вы не можете редактировать свои сообщения
    Вы не можете удалять свои сообщения
    Вы не можете голосовать в опросах
    Вы не можете прикреплять файлы к сообщениям
    Вы можете скачивать файлы