Ссылка на приватное зеркало нашего сайта всего за 1$. Внимание количество ограничено!!!

2 сезон

iTunes

1 сезон

1

iTunes

iTunes

iTunes

1 сезон

RePack

30

ИГРА 18+

pack

ВАЖНО

!!Акция!!

Alien_RageХит недели

RePack

MK11
pack

Забери бонус

RePack

jed

!!Акция!!

Alien_Rage

RePack

fifa19

RePack

Assassins Creed: Odyssey

RePack

NEED FOR SPEED™ PAYBACK

4 сезон

9 сезон

Бесстыжие 9 сезон

Все сериалы

все сериалы на PB.wtf

RePack

FAR CRY 5
  

Менты: Улицы разбитых фонарей / Сезон: 16 / Серии: 1-40 из 40 (Павел Симонов) [2017, Боевик, криминал, детектив, HDTVRip 720p] pb.wtf

Менты: Улицы разбитых фонарей через торрент pb.wtf

Размер: 50.49 GB | Добавлен: 1 год 4 мес. назад | Торрент скачан:5 раз
Скачать  

06-06-2019 05:23 Менты: Улицы разбитых фонарей Скачать торрент  

Менты: Улицы разбитых фонарей
Год выпуска: 2017
Страна: Россия
Жанр: Боевик, криминал, детектив
Продолжительность: ~ 00:45:00
Перевод: Не требуется
Субтитры: отсутствуют

Режиссер: Павел Симонов



В ролях:

Александр Половцев, Михаил Трухин, Олег Андреев, Михаил Лучко, Андрей Зибров, Борис Клюев, Елена Купрашевич, Антон Багров, Александр Нестеров, Борис Чердынцев, Алексей Семёнов, Алексей Телеш, Игорь Ключников, Виталий Кривонос, Полина Лазарева, Александр Колесник, Глеб Степан Каллистов, Наталья Мызникова, Дмитрий Новиков, Сергей Кравцов, Алексей Красноцветов, Екатерина Савелкова, Татьяна Лукьянчикова, Даниил Кокин, Дмитрий Глазков, Роман Притула, Мирослав Бестаев, Лариса Логинова, Анна Роскошная, Евгения Любимова.

Описание:

Полковник Градовиков, ставший начальником межрайонного отделения, потихоньку свыкается с тем, что под его руководством оказались настоящие профессионалы. И как всякие профессионалы своего дела, они требуют особого человеческого подхода к ним. Стандартный метод кнута и пряника, к которому в Москве привык Градовиков, не работает с этой честной и прямолинейной командой под руководством Соловца. Эти люди прошли огонь и воду, и знают цену закулисным интригам. Градовикову приходится проявлять должное уважение к навыкам наших оперов и он вынужден соглашаться с их решениями, поскольку сплоченной команде успешно удается бороться с преступностью. Соловец и остальные опера отдела в свою очередь вынуждены признать, что Градовиков хоть и вспыльчивый начальник, но довольно часто принимает верные решения, касающиеся расследования.

Качество: HDTVRip 720p
Формат: MKV

Видео: 1280x720 (16:9), 25 fps, AVC Н.264 High@L4.1~3500 kbps avg, 0.152 bit/pixel
Аудио: 48 kHz, АС3, 2 ch, Front: L R ~192.00 kbps avg
скриншот  скриншот  скриншот  скриншот  

Общее
Уникальный идентификатор : 214563134460681410843687385523306315398 (0xA16B5B47A4B4173998F04E8A3FF73E86)
Полное имя : F:\Фильмы торренты\Ulicy.razbityh.fonarej-16.2016-2017.HDTVRip.(720p).MediaClub\Ulicy.razbityh.fonarej-16.(01.seriya).2016.HDTVRip.(720p).MediaClub.mkv
Формат : Matroska
Версия формата : Version 4 / Version 2
Размер файла : 1,19 Гбайт
Продолжительность : 46 м. 0 с.
Общий поток : 3693 Кбит/сек
Дата кодирования : UTC 2017-04-11 08:36:03
Программа кодирования : mkvmerge v7.8.0 (''River Man'') 32bit built on Apr 3 2015 12:11:22
Библиотека кодирования : libebml v1.3.1 + libmatroska v1.4.2

Видео
Идентификатор : 1
Формат : AVC
Формат/Информация : Advanced Video Codec
Профиль формата : High@L4.1
Параметр CABAC формата : Да
Параметр ReFrames формата : 9 кадров
Идентификатор кодека : V_MPEG4/ISO/AVC
Продолжительность : 46 м. 0 с.
Битрейт : 3500 Кбит/сек
Ширина : 1280 пикселей
Высота : 720 пикселей
Соотношение сторон : 16:9
Режим частоты кадров : Постоянный
Частота кадров : 25,000 кадров/сек
Цветовое пространство : YUV
Субдискретизация насыщенности : 4:2:0
Битовая глубина : 8 бит
Тип развёртки : Прогрессивная
Бит/(Пиксели*Кадры) : 0.152
Размер потока : 1,12 Гбайт (95%)
Библиотека кодирования : x264 core 146 r2538 121396c
Настройки программы : cabac=1 / ref=9 / deblock=1:-3:-3 / analyse=0x3:0x113 / me=umh / subme=11 / psy=1 / psy_rd=1.00:0.20 / mixed_ref=1 / me_range=32 / chroma_me=1 / trellis=2 / 8x8dct=1 / cqm=0 / deadzone=21,11 / fast_pskip=1 / chroma_qp_offset=-3 / threads=6 / lookahead_threads=1 / sliced_threads=0 / nr=0 / decimate=0 / interlaced=0 / bluray_compat=0 / constrained_intra=0 / bframes=12 / b_pyramid=2 / b_adapt=2 / b_bias=0 / direct=3 / weightb=1 / open_gop=0 / weightp=2 / keyint=250 / keyint_min=25 / scenecut=40 / intra_refresh=0 / rc_lookahead=60 / rc=2pass / mbtree=1 / bitrate=3500 / ratetol=1.0 / qcomp=0.60 / qpmin=0 / qpmax=69 / qpstep=4 / cplxblur=20.0 / qblur=0.5 / vbv_maxrate=14000 / vbv_bufsize=14000 / nal_hrd=none / filler=0 / ip_ratio=1.40 / aq=3:1.00
Default : Нет
Forced : Нет
Цветовой диапазон : Limited
Основные цвета : BT.709
Характеристики трансфера : BT.709
Коэффициенты матрицы : BT.709

Аудио
Идентификатор : 2
Формат : AC-3
Формат/Информация : Audio Coding 3
Расширение режима : CM (complete main)
Параметр Endianness формата : Big
Идентификатор кодека : A_AC3
Продолжительность : 46 м. 0 с.
Вид битрейта : Постоянный
Битрейт : 192 Кбит/сек
Каналы : 2 канала
Расположение каналов : Front: L R
Частота : 48,0 КГц
Частота кадров : 31,250 кадров/сек (1536 spf)
Метод сжатия : С потерями
Размер потока : 63,2 Мбайт (5%)
Язык : Russian
Default : Да
Forced : Да
Показать скриншоты

pb.wtf



Скачать Менты: Улицы разбитых фонарей через торрент https://i89.fastpic.ru/big/2017/0411/11/458c5ed5aa0423905d5812e3dfc5a711.jpg Скачать фильм Менты: Улицы разбитых фонарей через торрент бесплантно в хорошем качестве Описание: Полковник Градовиков, ставший начальником межрайонного отделения, потихоньку свыкается с тем, что под его руководством оказались ... 10 10 2
Торрент: Зарегистрирован [2019-06-06 05:23] · скачан: 5 раз
Статус: √ проверено
Размер: 50.49 GB
Как cкачать? Как скачать Менты: Улицы разбитых фонарей через торрент | qTorrent

% Раздел Тема Автор DL S | L
Наши сериалы [ 106.42 GB ] Менты: Улицы разбитых фонарей / Сезон: 16 / Серии: 1-40 из 40 [2017 HDTV 1080i] bober100 Скачать
1 | 0
Наши сериалы [ 24.48 GB ] Менты: Улицы разбитых фонарей / Сезон: 16 / Серии: 1-40 из 40 [2017 SATRip] bober100 Скачать
1 | 0

28-11-2019 20:33  

Отключить всю рекламу на сайте

    Дорогой пользователь! Огромная просьба, поблагодарите релизера, оцените раздачу и оставьте свои комментарий, если Вы скачали Менты: Улицы разбитых фонарей через торрент бесплатно! Внесите свою лепту в развитие PiratBit!
    Комментировать посты могут только пользователи прошедшие не сложную регистрацию
    Показать сообщения:    

    Менты: Улицы разбитых фонарей через торрент
    Скачать бесплатно Менты: Улицы разбитых фонарей
    Менты: Улицы разбитых фонарей скачать торрент
    Менты: Улицы разбитых фонарей смотреть онлайн
    Cкачать фильм Менты: Улицы разбитых фонарей бесплатно
    Менты: Улицы разбитых фонарей скачать торрент в хорошем качестве
    Менты: Улицы разбитых фонарей смотреть онлайн бесплатно в хорошем качестве


    Вы не можете начинать темы
    Вы не можете отвечать на сообщения
    Вы не можете редактировать свои сообщения
    Вы не можете удалять свои сообщения
    Вы не можете голосовать в опросах
    Вы не можете прикреплять файлы к сообщениям
    Вы можете скачивать файлы