Ссылка на приватное зеркало нашего сайта всего за 1$. Внимание количество ограничено!!!

2 сезон

iTunes

1 сезон

1

iTunes

iTunes

iTunes

1 сезон

RePack

30

ИГРА 18+

pack

ВАЖНО

!!Акция!!

Alien_RageХит недели

RePack

MK11
pack

Забери бонус

RePack

jed

!!Акция!!

Alien_Rage

RePack

fifa19

RePack

Assassins Creed: Odyssey

RePack

NEED FOR SPEED™ PAYBACK

4 сезон

9 сезон

Бесстыжие 9 сезон

Все сериалы

все сериалы на PB.wtf

RePack

FAR CRY 5
  

Менты: Улицы разбитых фонарей / Сезон: 16 / Серии: 1-40 из 40 (Павел Симонов) [2017, Боевик, криминал, детектив, HDTV 1080i] pb.wtf

Менты: Улицы разбитых фонарей через торрент pb.wtf

Размер: 106.42 GB | Добавлен: 1 год 4 мес. назад | Торрент скачан:0 раз
Скачать  

06-06-2019 05:29 Менты: Улицы разбитых фонарей Скачать торрент  

Менты: Улицы разбитых фонарей
Год выпуска: 2017
Страна: Россия
Жанр: Боевик, криминал, детектив
Продолжительность: ~ 00:45:00
Перевод: Не требуется
Субтитры: отсутствуют

Режиссер: Павел Симонов



В ролях:

Александр Половцев, Михаил Трухин, Олег Андреев, Михаил Лучко, Андрей Зибров, Борис Клюев, Елена Купрашевич, Антон Багров, Александр Нестеров, Борис Чердынцев, Алексей Семёнов, Алексей Телеш, Игорь Ключников, Виталий Кривонос, Полина Лазарева, Александр Колесник, Глеб Степан Каллистов, Наталья Мызникова, Дмитрий Новиков, Сергей Кравцов, Алексей Красноцветов, Екатерина Савелкова, Татьяна Лукьянчикова, Даниил Кокин, Дмитрий Глазков, Роман Притула, Мирослав Бестаев, Лариса Логинова, Анна Роскошная, Евгения Любимова.

Описание:

Полковник Градовиков, ставший начальником межрайонного отделения, потихоньку свыкается с тем, что под его руководством оказались настоящие профессионалы. И как всякие профессионалы своего дела, они требуют особого человеческого подхода к ним. Стандартный метод кнута и пряника, к которому в Москве привык Градовиков, не работает с этой честной и прямолинейной командой под руководством Соловца. Эти люди прошли огонь и воду, и знают цену закулисным интригам. Градовикову приходится проявлять должное уважение к навыкам наших оперов и он вынужден соглашаться с их решениями, поскольку сплоченной команде успешно удается бороться с преступностью. Соловец и остальные опера отдела в свою очередь вынуждены признать, что Градовиков хоть и вспыльчивый начальник, но довольно часто принимает верные решения, касающиеся расследования.

Качество: HDTV 1080i
Формат: TS

Видео: 1920х1080 (16:9), 25 fps, AVC MPEG-4 (x264), High@L4.0 ~ 8500 kbps , 0.152 bit/pixel
Аудио: 48 kHz, MPEG Layer 2, 2 ch, ~ 192 kbps avg
скриншот  скриншот  скриншот  скриншот  

Общее
Идентификатор : 1 (0x1)
Полное имя : F:\Фильмы торренты\Ulicy.razbityh.fonarej-16.2016-2017.HDTV.(1080i).MediaClub\Ulicy.razbityh.fonarej-16.(01.seriya.iz.04).2016.HDTV.(1080i).MediaClub.ts
Формат : MPEG-TS
Размер файла : 2,72 Гбайт
Продолжительность : 46 м. 0 с.
Режим общего битрейта : Переменный
Общий поток : 8476 Кбит/сек

Видео
Идентификатор : 901 (0x385)
Идентификатор меню : 1081 (0x439)
Формат : AVC
Формат/Информация : Advanced Video Codec
Профиль формата : Main@L4.0
Параметр CABAC формата : Да
Параметр ReFrames формата : 2 кадра
Параметр GOP формата : M=3, N=30
Идентификатор кодека : 27
Продолжительность : 46 м. 0 с.
Битрейт : 7863 Кбит/сек
Ширина : 1920 пикселей
Высота : 1080 пикселей
Соотношение сторон : 16:9
Частота кадров : 25,000 кадров/сек
Цветовое пространство : YUV
Субдискретизация насыщенности : 4:2:0
Битовая глубина : 8 бит
Тип развёртки : MBAFF
Метод сохранения типа развёртки : Чередующиеся поля
Порядок развёртки : Верхнее поле первое
Бит/(Пиксели*Кадры) : 0.152
Размер потока : 2,53 Гбайт (93%)
Цветовой диапазон : Limited
Основные цвета : BT.709
Характеристики трансфера : BT.709
Коэффициенты матрицы : BT.709

Аудио
Идентификатор : 902 (0x386)
Идентификатор меню : 1081 (0x439)
Формат : MPEG Audio
Версия формата : Version 1
Профиль формата : Layer 2
Идентификатор кодека : 3
Продолжительность : 46 м. 0 с.
Вид битрейта : Постоянный
Битрейт : 192 Кбит/сек
Каналы : 2 канала
Частота : 48,0 КГц
Метод сжатия : С потерями
Размер потока : 63,2 Мбайт (2%)
Язык : Russian
Показать с

pb.wtf



Скачать Менты: Улицы разбитых фонарей через торрент http://i89.fastpic.ru/big/2017/0411/aa/67ae281b9e5615861dcbe0b60489baaa.jpg Скачать фильм Менты: Улицы разбитых фонарей через торрент бесплантно в хорошем качестве Описание: Полковник Градовиков, ставший начальником межрайонного отделения, потихоньку свыкается с тем, что под его руководством оказались ... 10 10 2
Торрент: Зарегистрирован [2019-06-06 05:29] · скачан: 0 раз
Статус: √ проверено
Размер: 106.42 GB
Как cкачать? Как скачать Менты: Улицы разбитых фонарей через торрент | qTorrent

% Раздел Тема Автор DL S | L
Наши сериалы [ 50.49 GB ] Менты: Улицы разбитых фонарей / Сезон: 16 / Серии: 1-40 из 40 [2017 HDTVRip 720p] bober100 Скачать
1 | 0
Наши сериалы [ 24.48 GB ] Менты: Улицы разбитых фонарей / Сезон: 16 / Серии: 1-40 из 40 [2017 SATRip] bober100 Скачать
1 | 0

28-11-2019 20:33  

Отключить всю рекламу на сайте

    Дорогой пользователь! Огромная просьба, поблагодарите релизера, оцените раздачу и оставьте свои комментарий, если Вы скачали Менты: Улицы разбитых фонарей через торрент бесплатно! Внесите свою лепту в развитие PiratBit!
    Комментировать посты могут только пользователи прошедшие не сложную регистрацию
    Показать сообщения:    

    Менты: Улицы разбитых фонарей через торрент
    Скачать бесплатно Менты: Улицы разбитых фонарей
    Менты: Улицы разбитых фонарей скачать торрент
    Менты: Улицы разбитых фонарей смотреть онлайн
    Cкачать фильм Менты: Улицы разбитых фонарей бесплатно
    Менты: Улицы разбитых фонарей скачать торрент в хорошем качестве
    Менты: Улицы разбитых фонарей смотреть онлайн бесплатно в хорошем качестве


    Вы не можете начинать темы
    Вы не можете отвечать на сообщения
    Вы не можете редактировать свои сообщения
    Вы не можете удалять свои сообщения
    Вы не можете голосовать в опросах
    Вы не можете прикреплять файлы к сообщениям
    Вы можете скачивать файлы