Ссылка на приватное зеркало нашего сайта всего за 1$. Внимание количество ограничено!!!

2 сезон

iTunes

1 сезон

1

2 сезон

2 сезон

iTunes

1 сезон

RePack

30

Ultimate

ВАЖНО

ИГРА 18+

pack

RePack

MK11
pack

Забери бонус

RePack

jed

!!Акция!!

Alien_Rage

RePack

fifa19

RePack

Assassins Creed: Odyssey

RePack

NEED FOR SPEED™ PAYBACK

4 сезон

9 сезон

Бесстыжие 9 сезон

Все сериалы

все сериалы на PB.wtf

RePack

FAR CRY 5
  

Посредник / Проводник / The InBetween / Сезон: 1 / Серии: 1-10 из 10 (Руба Надда, П.Дж. Пеше, Шарлотта Зилинг) [2019, фантастика, драма, WEB-DL 1080p] MVO [TVShows] pb.wtf

Посредник через торрент pb.wtf

Размер: 31.17 GB | Добавлен: 1 год 3 мес. назад | Торрент скачан:8 раз
Скачать  

06-06-2019 06:55 Посредник Скачать торрент  

Посредник | Проводник | The InBetween Год выпуска: 2019
Страна: США, Великобритания
Жанр: фантастика, драма
Продолжительность: ~ 00:42:00
Перевод: Профессиональный (многоголосый закадровый) | TVShows
Субтитры: английские

Режиссёр
: Руба Надда, П.Дж. Пеше, Шарлотта Зилинг

В ролях: Харриет Дайер, Пол Блекторн, Джастин Корнвэлл, Синди Луна, Майкл Б. Сильвер, Андрес Джозеф, Чад Джеймс Бьюкэнэн, Грэйс Линн Кунг, Шон Болджер, Йен Хоуз и др.

Описание: Кэсси Бедфорд может видеть умерших и общаться с ними. Она считает свой дар проклятием. Но когда к ней за помощью обращаются детективы, расследующие жестокое убийство, она соглашается использовать свои способности.

rating


Качество: WEB-DL 1080p
Формат: MKV

Видео: 1920x1080 (16:9) | X264 | ~8926kbps | 23.976 fps
Аудио 1: AC3 | 48 KHz | 5.1 (Front: L С R Side: L R) + LFE | ~384 kbps [RUS]
Аудио 2: Е-AC3 | 48 KHz | 5.1 (Front: L С R Side: L R) + LFE | ~640 kbps [ENG]
General
Unique ID : 98854061464922758671490614325359808546 (0x4A5E9986978574B03C82326DAFA61022)
Complete name : C:\Users\Desktop\The.InBetween.S01.1080p.TVShows\The.InBetween.S01E01.1080p.TVShows.mkv
Format : Matroska
Format version : Version 4 / Version 2
File size : 2.96 GiB
Duration : 42 min 38 s
Overall bit rate : 9 952 kb/s
Encoded date : UTC 2019-06-02 08:24:28
Writing application : mkvmerge v33.1.0 ('Primrose') 64-bit
Writing library : libebml v1.3.7 + libmatroska v1.5.0

Video
ID : 1
Format : AVC
Format/Info : Advanced Video Codec
Format profile : High@L4
Format settings : CABAC / 4 Ref Frames
Format settings, CABAC : Yes
Format settings, ReFrames : 4 frames
Codec ID : V_MPEG4/ISO/AVC
Duration : 42 min 38 s
Bit rate mode : Constant
Bit rate : 8 926 kb/s
Nominal bit rate : 10 000 kb/s
Width : 1 920 pixels
Height : 1 080 pixels
Display aspect ratio : 16:9
Frame rate mode : Constant
Frame rate : 23.976 (24000/1001) FPS
Color space : YUV
Chroma subsampling : 4:2:0
Bit depth : 8 bits
Scan type : Progressive
Bits/(Pixel*Frame) : 0.180
Stream size : 2.66 GiB (90%)
Default : Yes
Forced : No
Color range : Limited
Color primaries : BT.709
Transfer characteristics : BT.709
Matrix coefficients : BT.709

Audio #1
ID : 2
Format : AC-3
Format/Info : Audio Coding 3
Codec ID : A_AC3
Duration : 42 min 38 s
Bit rate mode : Constant
Bit rate : 384 kb/s
Channel(s) : 6 channels
Channel positions : Front: L C R, Side: L R, LFE
Sampling rate : 48.0 kHz
Frame rate : 31.250 FPS (1536 SPF)
Bit depth : 16 bits
Compression mode : Lossy
Stream size : 117 MiB (4%)
Title : TVShows
Language : Russian
Service kind : Complete Main
Default : Yes
Forced : Yes

Audio #2
ID : 3
Format : E-AC-3
Format/Info : Enhanced Audio Coding 3
Codec ID : A_EAC3
Duration : 42 min 38 s
Bit rate mode : Constant
Bit rate : 640 kb/s
Channel(s) : 6 channels
Channel positions : Front: L C R, Side: L R, LFE
Sampling rate : 48.0 kHz
Frame rate : 187.500 FPS (256 SPF)
Compression mode : Lossy
Stream size : 195 MiB (6%)
Title : Original
Language : English
Service kind : Complete Main
Default : No
Forced : No

Text
ID : 4
Format : UTF-8
Codec ID : S_TEXT/UTF8
Codec ID/Info : UTF-8 Plain Text
Duration : 41 min 55 s
Bit rate : 87 b/s
Count of elements : 917
Stream size : 26.9 KiB (0%)
Title : English
Language : English
Default : No
Forced : No
Внимание! Раздача ведётся путём добавления новых серий; при каждом добавлении создаётся новый торрент.
Чтобы начать докачку новой серии, пользователям необходимо сделать следующее:
1. Остановить скачивание.
2. Удалить старый торрент у себя из клиента (старые серии удалять не надо).
3. Скачать новый торрент и запустить его у себя в клиенте вместо старого, при этом указать клиенту путь в старую папку куда и должно происходить скачивание новых серий.
Ваш клиент при этом должен произвести хеширование (проверку) старой папки (если не производит сам - помогите ему сделать это), и будет докачивать только те серии которых у вас ещё нет. Старые серии при этом не удаляются, а продолжают раздаваться!
Eсли вы уже удалили старые серии, то предотвратить повторную закачку старых серий можно, отжав галочку в соответствующих местах при запуске нового торрента.
pb.wtf



Скачать Посредник через торрент http://a.radikal.ru/a28/1907/f9/3e940e4669db.jpg Скачать фильм Посредник через торрент бесплантно в хорошем качестве Описание: Кэсси Бедфорд может видеть умерших и общаться с ними. Она считает свой дар проклятием. Но когда к ней за помощью обращаются ... 10 10 2
Торрент: Зарегистрирован [2019-08-20 05:45] · скачан: 8 раз
Статус: √ проверено
Размер: 31.17 GB
Как cкачать? Как скачать Посредник через торрент | qTorrent

% Раздел Тема Автор DL S | L
Зарубежные сериалы [ 17.18 GB ] Посредник / Проводник / The InBetween / Сезон: 1 / Серии: 1-10 из 10 [2019 WEB-DL 720p] MVO [TVShows] bober100 Скачать
1 | 0
Зарубежные сериалы [ 7.13 GB ] Посредник / Проводник / The InBetween / Сезон: 1 / Серии: 1-10 из 10 [2019 WEB-DLRip] MVO [TVShows] bober100 Скачать
1 | 0

28-11-2019 20:33  

Отключить всю рекламу на сайте

    Дорогой пользователь! Огромная просьба, поблагодарите релизера, оцените раздачу и оставьте свои комментарий, если Вы скачали Посредник через торрент бесплатно! Внесите свою лепту в развитие PiratBit!
    Комментировать посты могут только пользователи прошедшие не сложную регистрацию
    Показать сообщения:    

    Посредник через торрент
    Скачать бесплатно Посредник
    Посредник скачать торрент
    Посредник смотреть онлайн
    Cкачать фильм Посредник бесплатно
    Посредник скачать торрент в хорошем качестве
    Посредник смотреть онлайн бесплатно в хорошем качестве


    Вы не можете начинать темы
    Вы не можете отвечать на сообщения
    Вы не можете редактировать свои сообщения
    Вы не можете удалять свои сообщения
    Вы не можете голосовать в опросах
    Вы не можете прикреплять файлы к сообщениям
    Вы можете скачивать файлы