Ссылка на приватное зеркало нашего сайта всего за 1$. Внимание количество ограничено!!!

2 сезон

iTunes

1 сезон

1

iTunes

iTunes

iTunes

1 сезон

RePack

30

ИГРА 18+

pack

ВАЖНО

!!Акция!!

Alien_RageХит недели

RePack

MK11
pack

Забери бонус

RePack

jed

!!Акция!!

Alien_Rage

RePack

fifa19

RePack

Assassins Creed: Odyssey

RePack

NEED FOR SPEED™ PAYBACK

4 сезон

9 сезон

Бесстыжие 9 сезон

Все сериалы

все сериалы на PB.wtf

RePack

FAR CRY 5
  

Любовь под микроскопом / Серии: 1-2 из 2 (Олег Туранский) [2018, Мелодрама, HDTVRip 720p] pb.wtf

Любовь под микроскопом через торрент pb.wtf

Размер: 5.24 GB | Добавлен: 1 год 4 мес. назад | Торрент скачан:18 раз
Скачать  

06-06-2019 09:56 Любовь под микроскопом Скачать торрент  

Любовь под микроскопом Год выпуска: 2018
Страна: Россия, Украина
Жанр: Мелодрама
Продолжительность: ~ 01:30:00
Субтитры: отсутствуют

Режиссер: Олег Туранский



В ролях:

Алина Сергеева, Вячеслав Довженко, Дмитрий Сова, Дарья Егоркина, Анатолий Ященко, Ксения Николаева

Описание:

Жизнь талантливого столичного хирурга складывается вполне успешно - отличные перспективы на работе плюс она ждет ребенка от любимого мужчины, за которого собирается замуж. Все рушится в один миг. Анна берется оперировать безнадежного пациента, пострадавшего в аварии, и молодой человек умирает прямо у нее под скальпелем. Но главная героиня еще не знает, что черная полоса в ее жизни только начинает набирать обороты...

Качество: HDTVRip 720p
Формат: MKV

Видео: 1280х520, (2,462:1), 25 fps, AVC MPEG-4 (x264), High@L4.1 ~ 4000 kbps , 0.240 bit/pixel
Аудио: 48.0 kHz, AC3 Dolby Digital, 2/0 (L,R) ch, ~ 192 kbps
скриншот  скриншот  скриншот  скриншот  

Общее
Уникальный идентификатор : 224093253340187583339420392499749276316 (0xA896CA6AF1192E2397A499E0F0974A9C)
Полное имя : C:\Lyubov.pod.mikroskopom.2018.HDTVRip.(720p).ExKinoRay\Lyubov.pod.mikroskopom.(01.seriya.iz.02).2018.HDTVRip.(720p).ExKinoRay.mkv
Формат : Matroska
Версия формата : Version 4
Размер файла : 2,70 Гбайт
Продолжительность : 1 ч. 32 м.
Общий поток : 4194 Кбит/сек
Дата кодирования : UTC 2019-06-03 15:51:03
Программа кодирования : mkvmerge v7.8.0 (''River Man'') 32bit built on Mar 27 2015 16:18:02
Библиотека кодирования : libebml v1.3.1 + libmatroska v1.4.2

Видео
Идентификатор : 1
Формат : AVC
Формат/Информация : Advanced Video Codec
Профиль формата : High@L4.1
Настройки формата : CABAC / 9 Ref Frames
Параметр CABAC формата : Да
Параметр RefFrames формата : 9 кадров
Идентификатор кодека : V_MPEG4/ISO/AVC
Продолжительность : 1 ч. 32 м.
Битрейт : 4000 Кбит/сек
Ширина : 1280 пикселей
Высота : 720 пикселей
Соотношение сторон : 16:9
Режим частоты кадров : Постоянный
Частота кадров : 25,000 кадров/сек
Цветовое пространство : YUV
Субдискретизация насыщенности : 4:2:0
Битовая глубина : 8 бит
Тип развёртки : Прогрессивная
Бит/(Пиксели*Кадры) : 0.174
Размер потока : 2,57 Гбайт (95%)
Библиотека кодирования : x264 core 146 r2538 121396c
Настройки программы : cabac=1 / ref=9 / deblock=1:-3:-3 / analyse=0x3:0x133 / me=umh / subme=10 / psy=1 / psy_rd=1.00:0.20 / mixed_ref=1 / me_range=32 / chroma_me=1 / trellis=2 / 8x8dct=1 / cqm=0 / deadzone=21,11 / fast_pskip=1 / chroma_qp_offset=-3 / threads=12 / lookahead_threads=8 / sliced_threads=0 / nr=0 / decimate=1 / interlaced=0 / bluray_compat=0 / constrained_intra=0 / bframes=11 / b_pyramid=2 / b_adapt=2 / b_bias=0 / direct=1 / weightb=1 / open_gop=0 / weightp=2 / keyint=250 / keyint_min=25 / scenecut=40 / intra_refresh=0 / rc=2pass / mbtree=0 / bitrate=4000 / ratetol=1.0 / qcomp=0.60 / qpmin=0 / qpmax=69 / qpstep=4 / cplxblur=20.0 / qblur=0.5 / ip_ratio=1.40 / pb_ratio=1.30 / aq=3:1.00
Default : Нет
Forced : Нет
Цветовой диапазон : Limited
Основные цвета : BT.709
Характеристики трансфера : BT.709
Коэффициенты матрицы : BT.709

Аудио
Идентификатор : 2
Формат : AC-3
Формат/Информация : Audio Coding 3
Коммерческое название : Dolby Digital
Идентификатор кодека : A_AC3
Продолжительность : 1 ч. 32 м.
Вид битрейта : Постоянный
Битрейт : 192 Кбит/сек
Каналы : 2 канала
ChannelLayout : L R
Частота : 48,0 КГц
Частота кадров : 31,250 кадров/сек (1536 SPF)
Битовая глубина : 16 бит
Метод сжатия : С потерями
Размер потока : 126 Мбайт (5%)
Язык : Russian
ServiceKind/String : Complete Main
Default : Да
Forced : Да

pb.wtf



Скачать Любовь под микроскопом через торрент https://i107.fastpic.ru/big/2018/1202/6c/8ed4ba1442643eb7bbb6299224205e6c.jpg Скачать фильм Любовь под микроскопом через торрент бесплантно в хорошем качестве Описание: Жизнь талантливого столичного хирурга складывается вполне успешно - отличные перспективы на работе плюс она ждет ребенка от ... 10 10 2
Торрент: Зарегистрирован [2019-06-06 09:56] · скачан: 18 раз
Статус: √ проверено
Размер: 5.24 GB
Как cкачать? Как скачать Любовь под микроскопом через торрент | qTorrent

28-11-2019 20:33  

Отключить всю рекламу на сайте

    Дорогой пользователь! Огромная просьба, поблагодарите релизера, оцените раздачу и оставьте свои комментарий, если Вы скачали Любовь под микроскопом через торрент бесплатно! Внесите свою лепту в развитие PiratBit!
    Комментировать посты могут только пользователи прошедшие не сложную регистрацию
    Показать сообщения:    

    Любовь под микроскопом через торрент
    Скачать бесплатно Любовь под микроскопом
    Любовь под микроскопом скачать торрент
    Любовь под микроскопом смотреть онлайн
    Cкачать фильм Любовь под микроскопом бесплатно
    Любовь под микроскопом скачать торрент в хорошем качестве
    Любовь под микроскопом смотреть онлайн бесплатно в хорошем качестве


    Вы не можете начинать темы
    Вы не можете отвечать на сообщения
    Вы не можете редактировать свои сообщения
    Вы не можете удалять свои сообщения
    Вы не можете голосовать в опросах
    Вы не можете прикреплять файлы к сообщениям
    Вы можете скачивать файлы