Ссылка на приватное зеркало нашего сайта всего за 1$. Внимание количество ограничено!!!

2 сезон

iTunes

1 сезон

1

iTunes

iTunes

iTunes

1 сезон

RePack

30

ИГРА 18+

pack

ВАЖНО

!!Акция!!

Alien_RageХит недели

RePack

MK11
pack

Забери бонус

RePack

jed

!!Акция!!

Alien_Rage

RePack

fifa19

RePack

Assassins Creed: Odyssey

RePack

NEED FOR SPEED™ PAYBACK

4 сезон

9 сезон

Бесстыжие 9 сезон

Все сериалы

все сериалы на PB.wtf

RePack

FAR CRY 5
  

Бедная Настя / Серии: 1-127 из 127 (Петр Штейн) [2003-2004, драма, мелодрама, SATRip] pb.wtf

Бедная Настя через торрент pb.wtf

Раздают: 1 [ 4 KB/s ]
Размер: 50.67 GB | Добавлен: 1 год 4 мес. назад | Торрент скачан:3 раза
Скачать  

06-06-2019 14:54 Бедная Настя Скачать торрент  

Бедная Настя Год выпуска: 2003-2004
Страна: Россия
Жанр: драма, мелодрама
Продолжительность: ~ 00:42:00 серия
Субтитры: отсутствуют

Режиссер: Петр Штейн

rating

В ролях:

Елена Корикова, Петр Красилов, Антон Макарский, Даниил Страхов, Виктор Вержбицкий, Эммануил Виторган, Марина Александрова, Екатерина Климова, Алена Бондарчук, Игорь Дмитриев, Теона Дольникова, Александр Филиппенко, Альберт Филозов, Анна Горшкова, Дмитрий Исаев, Владимир Качан, Александр Калягин, Марина Казанкова, Людмила Курепова, Ольга Остроумова, Дмитрий Шевченко, Ольга Семина, Анна Табанина, Светлана Тома, Нина Усатова, Александр Сигуев, Лариса Шахворостова, Юрий Шибанов, Игорь Стам, Владимир Болотнов, Алена Ивченко, Сергей Астахов

Описание:

1839 год. История движется вперед, а человеческие чувства не меняются – любовь и ревность, благородство и зависть, честность и предательство все так же правят балом… Барон Корф вырастил Анну как родную дочь, он мечтает увидеть ее на сцене императорского театра. Светский Петербург видит в Анне несомненный талант, ей прочат большое будущее. Но мало кто знает, что она – крепостная. Князь Михаил Репнин влюбился в Анну с первого взгляда, но не подозревает о ее происхождении. Сохранит ли Репнин свою любовь, когда тайна Анны раскроется? Молодой барон Корф рос вместе с Анной, он не хочет делить с ней отцовскую любовь и внешне презирает ее, но сам не подозревает, как сильно в нее влюблен. Владимир Корф – друг Репнина. Неужели он помешает любви Репнина и Анны? Кого выберет Анна? Станет ли она свободной? Станет ли она известной актрисой? Разные семьи вовлечены в эту любовную историю. Жестокая помещица Мария Долгорукая манипулирует своими дочерьми и мечтает завладеть соседским поместьем Корфов. Карл Модестович Шуллер, управляющий поместьем Корфов, помогает Марии Долгорукой в ее коварных планах. Крепостная Корфов, хитрая и опасная Полина ненавидит Анну – и мечтает занять ее место в поместье и на сцене. Ради этого она заключает с Модестовичем временный союз… Тем временем в Санкт-Петербурге Николай I наставляет своего сына Александра на путь служения государству. А наследник Александр мечтает только об одном - жить простой, полной любви жизнью. В российских дворцах и поместьях кипят страсти, но самые страшные секреты скрыты в одинокой избушке, затерянной в лесах между поместьями Корфов и Долгоруких. Там живет Сычиха – и она знает ответ на самый главный вопрос…

Качество: SATRip
Формат: AVI

Видео: XviD, ~ 1300 Кбит/с, 624x352
Аудио: MP3, 2 ch, 166 Кбит/с
скриншот  скриншот  скриншот  

скриншот  скриншот  скриншот  

Общее
Полное имя : C:\Users\Бобер\Desktop\Bednaya.Nastya.(001-127.seria.iz.127).2003.XviD.SATRip\Bednaya_Nastya_001_iz_127.avi
Формат : AVI
Формат/Информация : Audio Video Interleave
Размер файла : 403 Мбайт
Продолжительность : 42 м. 59 с.
Общий поток : 1312 Кбит/сек
Программа кодирования : Nandub v2.01 The advanced compression technology is developed by Neiromaster
Библиотека кодирования : Nandub 2.01 modified by Neiromaster

Видео
Идентификатор : 0
Формат : MPEG-4 Visual
Профиль формата : Advanced Simple@L5
Параметр BVOP формата : 2
Параметр QPel формата : Нет
Параметр GMC формата : Без точки перехода
Параметр матрицы формата : Default (H.263)
Режим смешивания : Сжатый битовый поток
Идентификатор кодека : XVID
Идентификатор кодека/Подсказка : XviD
Продолжительность : 42 м. 59 с.
Битрейт : 1233 Кбит/сек
Ширина : 624 пикселя
Высота : 352 пикселя
Соотношение сторон : 16:9
Частота кадров : 25,000 кадров/сек
Цветовое пространство : YUV
Субдискретизация насыщенности : 4:2:0
Битовая глубина : 8 бит
Тип развёртки : Прогрессивная
Метод сжатия : С потерями
Бит/(Пиксели*Кадры) : 0.206
Размер потока : 348 Мбайт (86%)
Библиотека кодирования : XviD 1.2.0.dev47 (UTC 2006-11-01)

Аудио
Идентификатор : 1
Формат : MPEG Audio
Идентификатор кодека : 55
Идентификатор кодека/Подсказка : MP3
Продолжительность : 42 м. 59 с.
Битрейт : 166 Кбит/сек
Каналы : 2 канала
Частота : 48,0 КГц
Метод сжатия : С потерями
Размер потока : 51,1 Мбайт (13%)
Выравнивание : Разделение по промежуткам
Продолжительность промежутка : 24 мс. (0,60 видеокадр)
Время предзагрузки промежутка : 192 мс

pb.wtf



Скачать Бедная Настя через торрент http://lostpic.net/images/628edd0f64d1383c5e0e5f123395cb82.jpg Скачать фильм Бедная Настя через торрент бесплантно в хорошем качестве Описание: 1839 год. История движется вперед, а человеческие чувства не меняются – любовь и ревность, благородство и зависть, честность и ... 10 10 2
Торрент: Зарегистрирован [2019-06-06 14:54] · скачан: 3 раз
Статус: √ проверено
Размер: 50.67 GB
Как cкачать? Как скачать Бедная Настя через торрент | qTorrent

28-11-2019 20:33  

Отключить всю рекламу на сайте

    Дорогой пользователь! Огромная просьба, поблагодарите релизера, оцените раздачу и оставьте свои комментарий, если Вы скачали Бедная Настя через торрент бесплатно! Внесите свою лепту в развитие PiratBit!
    Комментировать посты могут только пользователи прошедшие не сложную регистрацию
    Показать сообщения:    

    Бедная Настя через торрент
    Скачать бесплатно Бедная Настя
    Бедная Настя скачать торрент
    Бедная Настя смотреть онлайн
    Cкачать фильм Бедная Настя бесплатно
    Бедная Настя скачать торрент в хорошем качестве
    Бедная Настя смотреть онлайн бесплатно в хорошем качестве


    Вы не можете начинать темы
    Вы не можете отвечать на сообщения
    Вы не можете редактировать свои сообщения
    Вы не можете удалять свои сообщения
    Вы не можете голосовать в опросах
    Вы не можете прикреплять файлы к сообщениям
    Вы можете скачивать файлы