Ссылка на приватное зеркало нашего сайта всего за 1$. Внимание количество ограничено!!!

2 сезон

iTunes

1 сезон

1

2 сезон

2 сезон

iTunes

1 сезон

RePack

30

Новинка

ВАЖНО

ИГРА 18+

pack

RePack

MK11
pack

Забери бонус

RePack

jed

!!Акция!!

Alien_Rage

RePack

fifa19

RePack

Assassins Creed: Odyssey

RePack

NEED FOR SPEED™ PAYBACK

4 сезон

9 сезон

Бесстыжие 9 сезон

Все сериалы

все сериалы на PB.wtf

RePack

FAR CRY 5
  

Предприятие «Божий дар» / Предприятие 'Вечная благодать' / Perpetual Grace, LTD / Сезон: 1 / Серии: 1-10 из 10 (Стив Конрад, Джим Уайтакер) [2019, драма, WEB-DLRip] MVO [LostFilm] pb.wtf

Предприятие «Божий дар» через торрент pb.wtf

Размер: 7.22 GB | Добавлен: 1 год 3 мес. назад | Торрент скачан:36 раз
Скачать  

06-06-2019 16:04 Предприятие «Божий дар» Скачать торрент  

Предприятие «Божий дар» / Предприятие 'Вечная благодать' / Perpetual Grace, LTD
Год выпуска: 2019
Страна: США
Жанр: драма
Продолжительность: ~ 00:55:00
Перевод: Профессиональный (многоголосый) | LostFilm
Субтитры: Английские (SDH)

Режиссер: Стив Конрад, Джим Уайтакер

rating

В ролях:

Джимми Симпсон, Бен Кингсли, Джеки Уивер, Луис Гусман, Дэймон Херриман, Крис Конрад, Дэна ДеЛоренцо, Дэш Уильямс, Элиана Х. Александр, Майкл Чернус

Описание:

История о мошеннике Джеймсе, который выбрал себе в жертву пожилого пастора. Однако тот оказался не так прост, каким кажется, и аферист пожалел о своем выборе.

Качество: WEB-DLRip
Формат: AVI

Видео: 704x352, XviD ~1 700 kbps avg, 0.28 bit/pixel
Аудио#1 Rus: 48 kHz, AC3 2 ch, ~192 kbps|LostFilm|
Аудио#2 Eng: 48 kHz, AC3 2 ch, ~192 kbps
скриншот  скриншот  скриншот  скриншот  

Format : AVI
Format/Info : Audio Video Interleave
File size : 764 MiB
Duration : 53mn 29s
Overall bit rate : 1 998 Kbps
Movie name : Предприятие «Божий дар» 1х01: Одиннадцать
Director : Бёдвар (WEB-DLRip)
Writing application : VirtualDubModRus 1.5.10.2 (build 2542/release)
Comment : 06.06.2019

Video
ID : 0
Format : MPEG-4 Visual
Format profile : Advanced Simple@L5
Format settings, BVOP : 1
Format settings, QPel : No
Format settings, GMC : No warppoints
Format settings, Matrix : Default (MPEG)
Codec ID : XVID
Codec ID/Hint : XviD
Duration : 53mn 29s
Bit rate : 1 599 Kbps
Width : 704 pixels
Height : 352 pixels
Display aspect ratio : 2.000
Frame rate : 23.976 (24000/1001) fps
Color space : YUV
Chroma subsampling : 4:2:0
Bit depth : 8 bits
Scan type : Progressive
Compression mode : Lossy
Bits/(Pixel*Frame) : 0.269
Stream size : 612 MiB (80%)
Writing library : XviD 67

Audio #1
ID : 1
Format : AC-3
Format/Info : Audio Coding 3
Mode extension : CM (complete main)
Format settings, Endianness : Big
Codec ID : 2000
Duration : 53mn 29s
Bit rate mode : Constant
Bit rate : 192 Kbps
Channel(s) : 2 channels
Channel positions : Front: L R
Sampling rate : 48.0 KHz
Frame rate : 31.250 fps (1536 spf)
Compression mode : Lossy
Stream size : 73.5 MiB (10%)
Alignment : Split accross interleaves
Interleave, duration : 42 ms (1.00 video frame)
Interleave, preload duratio : 500 ms

Audio #2
ID : 2
Format : AC-3
Format/Info : Audio Coding 3
Mode extension : CM (complete main)
Format settings, Endianness : Big
Codec ID : 2000
Duration : 53mn 29s
Bit rate mode : Constant
Bit rate : 192 Kbps
Channel(s) : 2 channels
Channel positions : Front: L R
Sampling rate : 48.0 KHz
Frame rate : 31.250 fps (1536 spf)
Compression mode : Lossy
Stream size : 73.5 MiB (10%)
Alignment : Split accross interleaves
Interleave, duration : 42 ms (1.00 video frame)
Interleave, preload duratio : 500 ms

Когда раздача ведётся путём добавления новых серий, при каждом добавлении создётся новый торрент. Чтобы начать докачку новой серии, пользователям необходимо сделать следующее:
(1) остановить скачивание,
(2) удалить старый торрент у себя из клиента (старые серии удалять не надо),
(3) скачать новый торрент и запустить его у себя в клиенте вместо старого, при этом указать клиенту путь в старую папку, куда и должно происходить скачивание новых серий.
Ваш клиент при этом должен произвести хеширование (проверку) старой папки (если не производит сам - помогите ему сделать это), и будет докачивать только те серии, которых у вас ещё нет. Старые серии при этом не удаляются, а продолжают раздаваться!
Eсли вы уже удалили старые серии, то предотвратить повторную закачку старых серий можно, отжав галочку в соответсвующих местах при запуске нового торрента. По возможности, желательно не удалять старые серии как можно дольше, чтобы релизёр не столько продолжал раздавать старые серии, а смог сконцентрироваться на новых.
pb.wtf



Скачать Предприятие «Божий дар» через торрент https://d.radikal.ru/d26/1906/20/96d25fc6b283.jpg Скачать фильм Предприятие «Божий дар» через торрент бесплантно в хорошем качестве Описание: История о мошеннике Джеймсе, который выбрал себе в жертву пожилого пастора. Однако тот оказался не так прост, каким кажется, и ... 10 10 7
Info! Золотая раздача, скачанное не засчитывается.
Торрент: Зарегистрирован [2019-08-07 13:52] · скачан: 36 раз
Статус: √ проверено
Размер: 7.22 GB
Как cкачать? Как скачать Предприятие «Божий дар» через торрент | qTorrent

28-11-2019 20:33  

Отключить всю рекламу на сайте

08-08-2019 16:52 Предприятие «Божий дар» Скачать торрент  

Топовый сериал 2019-го года! Лучший "Патриот"озаменитель, для тех кто в теме беспорядочного бардака в действии, гениальных медленных планов, визуального перфекционизма, налета шизы и оператора уровня - Бог. В финале сезона я накончал два кармана спермы и еще передергивает! 2-й сезон жду больше чем дунуть.pb.wtf



    Дорогой пользователь! Огромная просьба, поблагодарите релизера, оцените раздачу и оставьте свои комментарий, если Вы скачали Предприятие «Божий дар» через торрент бесплатно! Внесите свою лепту в развитие PiratBit!
    Комментировать посты могут только пользователи прошедшие не сложную регистрацию
    Показать сообщения:    

    Предприятие «Божий дар» через торрент
    Скачать бесплатно Предприятие «Божий дар»
    Предприятие «Божий дар» скачать торрент
    Предприятие «Божий дар» смотреть онлайн
    Cкачать фильм Предприятие «Божий дар» бесплатно
    Предприятие «Божий дар» скачать торрент в хорошем качестве
    Предприятие «Божий дар» смотреть онлайн бесплатно в хорошем качестве


    Вы не можете начинать темы
    Вы не можете отвечать на сообщения
    Вы не можете редактировать свои сообщения
    Вы не можете удалять свои сообщения
    Вы не можете голосовать в опросах
    Вы не можете прикреплять файлы к сообщениям
    Вы можете скачивать файлы