MEGA NEWS Получи личный уникальный адрес сайта и защити себя от блокировок. Внимание количество ограничено!!!

iTunes

1+1

iTunes

мы

iTunes

1

iTunes

Чернобыль

iTunes

Ральф против интернета

Лицензия

ПШазам

Лицензия

Игра престолов

Лицензия

30
pack

ВАЖНО

!!Акция!!

Alien_RageХит недели

RePack

Resident Evil 21

ИГРА 18+

pack

RePack

Metro:Exodus

!!Акция!!

Alien_Rage

RePack

fifa19

RePack

Assassins Creed: Odyssey

RePack

NEED FOR SPEED™ PAYBACK

3 сезон

9 сезон

Бесстыжие 9 сезон

Все сериалы

все сериалы на PB.wtf

RePack

FAR CRY 5
Ребята, катастрофически не хватает 1900р. для оплаты серверов за АВГУСТ (всвязи с блокировками трафик упал в 3 раза), 1-2р., выручайте.
  

Кошмарный концерт / Un gatto nel cervello (Лучио Фульчи) [1990 г., ужасы, HDRip] DVO pb.wtf

Кошмарный концерт через торрент pb.wtf

Размер: 1.53 GB | Добавлен: 4 мес. 12 д. назад | Торрент скачан:10 раз
Скачать  

06-06-2019 19:07 Кошмарный концерт Скачать торрент  

Кошмарный концерт / Un gatto nel cervello Год выпуска: 1990

Страна: Италия

Жанр: Ужасы

Продолжительность: 01:32:51

Перевод: Профессиональный (двухголосый)

Режиссер: Лучио Фульчи

rating

В ролях: Лучио Фульчи, Малиса Лонго, Бретт Хэлси, Саша Дарвин, Роберт Эгон, Марко Ди Стефано, Морис Поли, Риа Де Симоне, Паола Коццо, Лубка Ленци, Джеффри Кеннеди

Описание: Эпатирующе-иронический фильм ужасов с оригинальным обращением к теме. Известный и весьма плодовитый хоррор-режиссер Лучио Фульчи исполняет роль самого себя, правда, настолько пресытившегося собственными киноужасами, что нервная система начала давать сбои. Одолевают кошмары, но особенно тревожит появившаяся жажда крови... В фильме много примеров киноужасов, так сильно подействовавших на героя.
Качество: HDRip
Формат: AVI
Видео: XviD, 2161 Кбит/с, 720x432
Аудио#1: Русский, AC3, 2 ch, 192 Кбит/с
Видео
Идентификатор : 0
Формат : MPEG-4 Visual
Профиль формата : Advanced Simple@L5
Настройки формата : BVOP2
Параметр BVOP формата : 2
Параметр QPel формата : Нет
Параметр GMC формата : Без точки перехода
Параметр матрицы формата : Default (MPEG)
Режим смешивания : Сжатый битовый поток
Идентификатор кодека : XVID
Идентификатор кодека/Подсказка : XviD
Продолжительность : 1 ч. 32 м.
Битрейт : 2161 Кбит/сек
Ширина : 720 пикселей
Высота : 432 пикселя
Соотношение сторон : 5:3
Частота кадров : 23,976 (24000/1001) кадра/сек
Частота кадров в оригинале : 23,976 (23976/1000) кадра/сек
Цветовое пространство : YUV
Субдискретизация насыщенности : 4:2:0
Битовая глубина : 8 бит
Тип развёртки : Прогрессивная
Метод сжатия : С потерями
Бит/(Пиксели*Кадры) : 0.290
Размер потока : 1,40 Гбайт (91%)
Библиотека кодирования : XviD 64

Аудио
Идентификатор : 1
Формат : AC-3
Формат/Информация : Audio Coding 3
Коммерческое название : Dolby Digital
Идентификатор кодека : 2000
Продолжительность : 1 ч. 32 м.
Вид битрейта : Постоянный
Битрейт : 192 Кбит/сек
Каналы : 2 канала
Channel layout : L R
Частота : 48,0 КГц
Частота кадров : 31,250 кадров/сек (1536 SPF)
Битовая глубина : 16 бит
Метод сжатия : С потерями
Размер потока : 128 Мбайт (8%)
Выравнивание : Соединение по промежуткам
Продолжительность промежутка : 32 мс. (0,77 видеокадр)
ServiceKind/String : Complete Main

скриншот   скриншот   скриншот   скриншот   скриншот  

pb.wtf



Скачать Кошмарный концерт через торрент https://i4.imageban.ru/out/2019/06/06/76bcd72dbadecc59bae2c36d7e851cc9.gif Скачать фильм Кошмарный концерт через торрент бесплантно в хорошем качестве Описание: Эпатирующе-иронический фильм ужасов с оригинальным обращением к теме. Известный и весьма плодовитый хоррор-режиссер Лучио Фульчи ... 5 10 1
Торрент: Зарегистрирован [2019-06-06 19:07] · скачан: 10 раз
Статус: √ проверено
Размер: 1.53 GB
Как cкачать? Как скачать Кошмарный концерт через торрент | qTorrent


>> Регистрируемся здесь <<






Отзывы и комментарии о схеме читаем и пишем здесь: ---> Отзывы и комментарии о схеме

Новые благодарочки в телеграм довольных пользователей:
скриншот   скриншот   скриншот   скриншот   скриншот
    Дорогой пользователь! Огромная просьба, поблагодарите релизера, оцените раздачу и оставьте свои комментарий, если Вы скачали Кошмарный концерт через торрент бесплатно! Внесите свою лепту в развитие PiratBit!
    Комментировать посты могут только пользователи прошедшие не сложную регистрацию
    Показать сообщения:    

    Кошмарный концерт через торрент
    Скачать бесплатно Кошмарный концерт
    Кошмарный концерт скачать торрент
    Кошмарный концерт смотреть онлайн
    Cкачать фильм Кошмарный концерт бесплатно
    Кошмарный концерт скачать торрент в хорошем качестве
    Кошмарный концерт смотреть онлайн бесплатно в хорошем качестве


    Вы не можете начинать темы
    Вы не можете отвечать на сообщения
    Вы не можете редактировать свои сообщения
    Вы не можете удалять свои сообщения
    Вы не можете голосовать в опросах
    Вы не можете прикреплять файлы к сообщениям
    Вы можете скачивать файлы