новый адрес
Мега распродажа FORZA HORIZON 4 ULTIMATE+ВСЕ DLC+ОНЛАЙН всего за 499р. 349 руб. (супер цена). Внимание количество ограничено!!!

iTunes

1+1

iTunes

мы

iTunes

1

iTunes

Чернобыль

iTunes

Ральф против интернета

Лицензия

ПШазам

Лицензия

Игра престолов

Лицензия

30
pack

ВАЖНО

!!Акция!!

Alien_RageХит недели

RePack

Resident Evil 21

ИГРА 18+

pack

RePack

Metro:Exodus

!!Акция!!

Alien_Rage

RePack

fifa19

RePack

Assassins Creed: Odyssey

RePack

NEED FOR SPEED™ PAYBACK

3 сезон

9 сезон

Бесстыжие 9 сезон

Все сериалы

все сериалы на PB.wtf

RePack

FAR CRY 5
Ребята, катастрофически не хватает 1900р. для оплаты серверов за Октябрь (всвязи с блокировками трафик упал в 3 раза), 1-2р., выручайте.
  

Ромео, мой сосед (Шамиль Махмудбеков) [1963, СССР, мюзикл, мелодрама, комедия, WEB-DLRip от AVP Studio] pb.wtf

Ромео, мой сосед через торрент pb.wtf

Раздают: 2 [ 0 KB/s ]
Размер: 745 MB | Добавлен: 5 мес. 10 д. назад | Торрент скачан:5 раз
Скачать  

07-06-2019 07:25 Ромео, мой сосед Скачать торрент  

Ромео, мой сосед
Страна: СССР
Производство: Азербайджанфильм

Жанр: мюзикл, мелодрама, комедия
Год выпуска: 1963
Продолжительность: 01:06:22

Перевод: Не требуется
Cубтитры: нет
Оригинальная аудиодорожка: русский

Режиссер: Шамиль Махмудбеков

В ролях:
Адиль Искендеров, Ксения Козьмина, Ираклий Хизанишвили, Ариадна Шенгелая, Софа Басирзаде, Ипполит Хвичия, Надежда Самсонова, Сиявуш Аслан (Асланов), Микаэла Дроздовская, С. Векилов, Алигейдар Гасанзаде, Юсиф Юлдус, Ашот Нерсесян...
Об актёрах подробней

Описание:
Экранизация популярной оперетты Р. Гаджиева.

Источник: WEB-DL 576p
Качество видео: WEB-DLRip
Формат видео: AVI

Видео: 704х480 (3:2), 25 fps, XviD ~ 1369 kbps avg, 0.162 bit/pixel
Аудио: 48 kHz, Dolby Digital AC3 2.0, 192 kbps

Раздача от:
Общее
Полное имя : Romeo,moy.sosed.1963.WEB-DLRip_[New-team]_by_AVP_Studio.avi
Формат : AVI
Формат/Информация : Audio Video Interleave
Размер файла : 745 Мбайт
Продолжительность : 1 ч. 6 м.
Общий поток : 1570 Кбит/сек
Программа кодирования : VirtualDubMod 1.5.10.3 | www.virtualdub-fr.org || (build 2550/release)
Библиотека кодирования : VirtualDubMod build 2550/release

Видео
Идентификатор : 0
Формат : MPEG-4 Visual
Профиль формата : Advanced Simple@L5
Настройки формата : BVOP1 / Custom Matrix
Параметр BVOP формата : 1
Параметр QPel формата : Нет
Параметр GMC формата : Без точки перехода
Параметр матрицы формата : Выборочная
Идентификатор кодека : XVID
Идентификатор кодека/Подсказка : XviD
Продолжительность : 1 ч. 6 м.
Битрейт : 1369 Кбит/сек
Ширина : 704 пикселя
Высота : 480 пикселей
Соотношение сторон : 3:2
Частота кадров : 25,000 кадров/сек
Цветовое пространство : YUV
Субдискретизация насыщенности : 4:2:0
Битовая глубина : 8 бит
Тип развёртки : Прогрессивная
Метод сжатия : С потерями
Бит/(Пиксели*Кадры) : 0.162
Размер потока : 650 Мбайт (87%)
Библиотека кодирования : XviD 73

Аудио
Идентификатор : 1
Формат : AC-3
Формат/Информация : Audio Coding 3
Коммерческое название : Dolby Digital
Идентификатор кодека : 2000
Продолжительность : 1 ч. 6 м.
Вид битрейта : Постоянный
Битрейт : 192 Кбит/сек
Каналы : 2 канала
ChannelLayout : L R
Частота : 48,0 КГц
Частота кадров : 31,250 кадров/сек (1536 SPF)
Битовая глубина : 16 бит
Метод сжатия : С потерями
Размер потока : 91,1 Мбайт (12%)
Выравнивание : Разделение по промежуткам
Продолжительность промежутка : 40 мс. (1,00 видеокадр)
Время предзагрузки промежутка : 500 мс
pb.wtf



Скачать Ромео, мой сосед через торрент http://picplus.ru/img/1906/07/e9ef694e.png Скачать фильм Ромео, мой сосед через торрент бесплантно в хорошем качестве Описание:Экранизация популярной оперетты Р. Гаджиева. Источник: WEB-DL ... 5 10 1
Info! Золотая раздача, скачанное не засчитывается.
Торрент: Зарегистрирован [2019-06-07 07:25] · скачан: 5 раз
Статус: √ проверено
Размер: 745 MB
Как cкачать? Как скачать Ромео, мой сосед через торрент | qTorrent

% Раздел Тема Автор DL S | L
Кино СССР [ 745 MB ] Ромео мой сосед [1963 СССР мюзикл WEB-DLRip-AVC от AVP Studio] AVP Studio Скачать
3 | 0


>> Регистрируемся здесь <<






Отзывы и комментарии о схеме читаем и пишем здесь: ---> Отзывы и комментарии о схеме

Новые благодарочки в телеграм довольных пользователей:
скриншот   скриншот   скриншот   скриншот   скриншот
    Дорогой пользователь! Огромная просьба, поблагодарите релизера, оцените раздачу и оставьте свои комментарий, если Вы скачали Ромео, мой сосед через торрент бесплатно! Внесите свою лепту в развитие PiratBit!
    Комментировать посты могут только пользователи прошедшие не сложную регистрацию
    Показать сообщения:    

    Ромео, мой сосед через торрент
    Скачать бесплатно Ромео, мой сосед
    Ромео, мой сосед скачать торрент
    Ромео, мой сосед смотреть онлайн
    Cкачать фильм Ромео, мой сосед бесплатно
    Ромео, мой сосед скачать торрент в хорошем качестве
    Ромео, мой сосед смотреть онлайн бесплатно в хорошем качестве


    Вы не можете начинать темы
    Вы не можете отвечать на сообщения
    Вы не можете редактировать свои сообщения
    Вы не можете удалять свои сообщения
    Вы не можете голосовать в опросах
    Вы не можете прикреплять файлы к сообщениям
    Вы можете скачивать файлы