Ссылка на приватное зеркало всего за 1$. Внимание количество ограничено!!!

iTunes

iTunes

iTunes

1

iTunes

iTunes

iTunes

WEBRip

iTunes

30
pack

$ от Little Big

ВАЖНО

!!Акция!!

Alien_RageХит недели

RePack

Resident Evil 21

ИГРА 18+

pack

RePack

jed

!!Акция!!

Alien_Rage

RePack

fifa19

RePack

Assassins Creed: Odyssey

RePack

NEED FOR SPEED™ PAYBACK

4 сезон

9 сезон

Бесстыжие 9 сезон

Все сериалы

все сериалы на PB.wtf

RePack

FAR CRY 5
  

Золотой Микрофон / The Golden Voices (М. Ледженд Браун) [2018, семейный, WEB-DL 720p] MVO ["Синема УС"] pb.wtf

Золотой Микрофон через торрент pb.wtf

Размер: 3.19 GB | Добавлен: 1 год 2 мес. назад | Торрент скачан:5 раз
Скачать  

07-06-2019 10:54 Золотой Микрофон Скачать торрент  

Золотой Микрофон / The Golden VoicesГод выпуска: 2018
Страна: США
Жанр: семейный
Продолжительность: 01:20:56
Перевод: Любительский (многоголосый) | "Синема УС"
Субтитры: отсутствуют

Режиссер: М. Ледженд Браун

rating

В ролях: Никки Донли, Ирма П. Холл, Тони Стюарт, Марио Мимс, Родни Луис Дин, Джон Уэйн Оуэнс, Грег Эллис, Рэйчел Уэбб, Мэтью Грир, Брайан Дж. Хаббард

Описание: Перед главной героиней, пожилой женщиной мисс Джексон, стоит непростая задача. Ей нужно собрать хор юных талантливых певцов для участия в конкурсе, победа в котором жизненно важна для будущего университета. Чтобы не упасть в грязь лицом, мисс Джексон заручается помощью своей любимой внучки, жизнь которой приобретает неожиданный для неё поворот.

Качество: WEB-DL 720p
Формат: MKV
Видео: h.264,5 254 Кбит/с, 1280x720
Аудио#1: Русский, (AC3, 2 ch, 384 Кбит/с)
скриншот  скриншот  скриншот  

Общее
Уникальный идентификатор : 240804444881620942552539985531275557288 (0xB5293FC5EDCF0045BE7B194043E7B9A8)
Полное имя : D:\the.golden.voices.2018.P.WEB_DL.72Op.mkv
Формат : Matroska
Версия формата : Version 2
Размер файла : 3,19 Гбайт
Продолжительность : 1 ч. 20 м.
Режим общего битрейта : Переменный
Общий поток : 5640 Кбит/сек
Дата кодирования : UTC 2019-05-31 16:51:02
Программа кодирования : mkvmerge v8.3.0 ('Over the Horizon') 64bit
Библиотека кодирования : libebml v1.3.1 + libmatroska v1.4.2

Видео
Идентификатор : 1
Формат : AVC
Формат/Информация : Advanced Video Codec
Профиль формата : High@L4.1
Параметр CABAC формата : Да
Параметр RefFrames формата : 4 кадра
Идентификатор кодека : V_MPEG4/ISO/AVC
Продолжительность : 1 ч. 20 м.
Вид битрейта : Переменный
Битрейт : 5254 Кбит/сек
Максимальный битрейт : 6000 Кбит/сек
Ширина : 1280 пикселей
Высота : 720 пикселей
Соотношение сторон : 16:9
Режим частоты кадров : Постоянный
Частота кадров : 23,976 (24000/1001) кадра/сек
Стандарт вещания : Component
Цветовое пространство : YUV
Субдискретизация насыщенности : 4:2:0
Битовая глубина : 8 бит
Тип развёртки : Прогрессивная
Бит/(Пиксели*Кадры) : 0.233
Размер потока : 2,91 Гбайт (91%)
Default : Да
Forced : Нет
Цветовой диапазон : Limited
Основные цвета : BT.709
Характеристики трансфера : BT.709
Коэффициенты матрицы : BT.709

Аудио
Идентификатор : 2
Формат : AC-3
Формат/Информация : Audio Coding 3
Расширение режима : CM (complete main)
Параметр Endianness формата : Big
Идентификатор кодека : A_AC3
Продолжительность : 1 ч. 20 м.
Вид битрейта : Постоянный
Битрейт : 384 Кбит/сек
Каналы : 2 канала
Расположение каналов : Front: L R
Частота : 48,0 КГц
Частота кадров : 31,250 кадров/сек (1536 spf)
Метод сжатия : С потерями
Размер потока : 222 Мбайт (7%)
Default : Да
Forced : Нет

pb.wtf



Скачать Золотой Микрофон через торрент https://d.radikal.ru/d37/1906/26/865f038aa975.jpg Скачать фильм Золотой Микрофон через торрент бесплантно в хорошем качестве Описание: Перед главной героиней, пожилой женщиной мисс Джексон, стоит непростая задача. Ей нужно собрать хор юных талантливых певцов для ... 10 10 2
Торрент: Зарегистрирован [2019-06-07 10:54] · скачан: 5 раз
Статус: T временная
Размер: 3.19 GB
Как cкачать? Как скачать Золотой Микрофон через торрент | qTorrent

% Раздел Тема Автор DL S | L
T Фильмы (мультфильмы) cо спонсором показа (Новинки AVI/MKV) [ 1.37 GB ] Золотой Микрофон / The Golden Voices [2018 WEB-DLRip] MVO ["Синема УС"] bober100 Скачать
1 | 0

28-11-2019 20:33  

Отключить всю рекламу на сайте

    Дорогой пользователь! Огромная просьба, поблагодарите релизера, оцените раздачу и оставьте свои комментарий, если Вы скачали Золотой Микрофон через торрент бесплатно! Внесите свою лепту в развитие PiratBit!
    Комментировать посты могут только пользователи прошедшие не сложную регистрацию
    Показать сообщения:    

    Золотой Микрофон через торрент
    Скачать бесплатно Золотой Микрофон
    Золотой Микрофон скачать торрент
    Золотой Микрофон смотреть онлайн
    Cкачать фильм Золотой Микрофон бесплатно
    Золотой Микрофон скачать торрент в хорошем качестве
    Золотой Микрофон смотреть онлайн бесплатно в хорошем качестве


    Вы не можете начинать темы
    Вы не можете отвечать на сообщения
    Вы не можете редактировать свои сообщения
    Вы не можете удалять свои сообщения
    Вы не можете голосовать в опросах
    Вы не можете прикреплять файлы к сообщениям
    Вы можете скачивать файлы