Ссылка на приватное зеркало нашего сайта всего за 1$. Внимание количество ограничено!!!

2 сезон

iTunes

1 сезон

1

2 сезон

2 сезон

iTunes

1 сезон

RePack

30

Новинка

ВАЖНО

ИГРА 18+

pack

RePack

MK11
pack

Забери бонус

RePack

jed

!!Акция!!

Alien_Rage

RePack

fifa19

RePack

Assassins Creed: Odyssey

RePack

NEED FOR SPEED™ PAYBACK

4 сезон

9 сезон

Бесстыжие 9 сезон

Все сериалы

все сериалы на PB.wtf

RePack

FAR CRY 5
  

Королева юга / Queen of the South / Сезон: 1 / Серии: 1-13 из 13 (Дэвид Бойд, Эдуардо Санчес, Дэйв Родригез) [2016, боевик, триллер, драма, криминал, WEB-DLRip] MVO [LostFilm] pb.wtf

Королева юга через торрент pb.wtf

Раздают: 1 [ 0 KB/s ]
Размер: 8.99 GB | Добавлен: 1 год 5 мес. назад | Торрент скачан:68 раз
Скачать  

07-06-2019 11:10 Королева юга Скачать торрент  

Королева юга | Queen of the South Год выпуска: 2016
Страна: США, Испания, Мальта, Мексика
Жанр: боевик, триллер, драма, криминал
Продолжительность: ~ 00:45:00
Перевод: Профессиональный (многоголосый закадровый) | LostFilm
Субтитры: нет

Режиссёр
: Дэвид Бойд, Эдуардо Санчес, Дэйв Родригез

В ролях:

Алиси Брага, Вероника Фалькон, Питер Гадиот, Хемки Мадера, Ник Сагар, Жоаки де Алмейда, Сэнди Валлес, Фелипе Барриентос, Янси Ариас, Джон Майкл Экер и др.

Описание:

После убийства возлюбленного бедная юная Тереса Мендоса была вынуждена покинуть родную Мексику и затеряться в Техасе. Вскоре, оценив ум и предприимчивость девушки, ее приглашает к себе местная наркобаронесса Камила. Она намерена разрушить бизнес своего мужа дона Эпифанио руками гостьи, но Тереса слишком умна, чтобы стать пешкой в чьей-то игре. В США у неординарной мексиканки начинается совершенно новая жизнь, ведь она понимает, что и сама много смыслит в торговле запрещенными веществами и является гораздо более прагматичной и расчетливой, нежели ее боссы. Полезные люди помогают Мендосе войти в этот бизнес, и она сначала осторожно, а потом все смелее начинает восходить по лестнице, усыпанной первосортным кокаином. Так, поднявшись с самого дна, главная героиня заполучает целый мир. Виртуозно манипулируя друзьями и врагами, конкурентами и коллегами, полицией и своими мужчинами, успевая повсюду и никогда не оставляя улик, молодая, сильная, уверенная в себе Тереса Мендоса занимает трон Королевы Юга. Теперь она не боится ничего и никого, правда, расплата за такой стремительный взлет может оказаться очень и очень серьезной...

rating

Качество: WEB-DLRip
Формат: AVI

Видео: XVID, 720x400, 23.976 fps, 2000 kbps avg, 0.29 bit/pixel
Аудио Rus: AC3, 48.0 KHz, 6 channels, 384 kbps


Реклама отсутствует
General
Complete name : G:\Королева юга (Сезон 1) LostFilm\Queen.of.the.South.S01E01.WEB-DLRip.RGzsRutracker.Celta88.avi
Format : AVI
Format/Info : Audio Video Interleave
File size : 777 MiB
Duration : 45 min 22 s
Overall bit rate : 2 393 kb/s
Writing application : VirtualDubMod 1.5.10.3 | www.virtualdub-fr.org || (build 2550/release)
Writing library : VirtualDubMod build 2550/release

Video
ID : 0
Format : MPEG-4 Visual
Format profile : Advanced Simple@L5
Format settings, BVOP : 1
Format settings, QPel : No
Format settings, GMC : No warppoints
Format settings, Matrix : Custom
Codec ID : XVID
Codec ID/Hint : XviD
Duration : 45 min 22 s
Bit rate : 2 000 kb/s
Width : 720 pixels
Height : 400 pixels
Display aspect ratio : 16:9
Frame rate : 23.976 (24000/1001) FPS
Color space : YUV
Chroma subsampling : 4:2:0
Bit depth : 8 bits
Scan type : Progressive
Compression mode : Lossy
Bits/(Pixel*Frame) : 0.290
Stream size : 649 MiB (84%)
Writing library : XviD 73

Audio
ID : 1
Format : AC-3
Format/Info : Audio Coding 3
Mode extension : CM (complete main)
Format settings, Endianness : Big
Codec ID : 2000
Duration : 45 min 22 s
Bit rate mode : Constant
Bit rate : 384 kb/s
Channel(s) : 6 channels
Channel positions : Front: L C R, Side: L R, LFE
Sampling rate : 48.0 kHz
Frame rate : 31.250 FPS (1536 spf)
Bit depth : 16 bits
Compression mode : Lossy
Stream size : 125 MiB (16%)
Alignment : Split accross interleaves
Interleave, duration : 42 ms (1.00 video frame)
Interleave, preload duratio : 500 ms
скриншот  скриншот  скриншот  скриншот  скриншот  
pb.wtf



Скачать Королева юга через торрент http://i93.fastpic.ru/big/2017/0614/59/3d6e52be63acf03483439c7642b9b159.png Скачать фильм Королева юга через торрент бесплантно в хорошем качестве Описание: После убийства возлюбленного бедная юная Тереса Мендоса была вынуждена покинуть родную Мексику и затеряться в Техасе. Вскоре, ... 10 10 6
Торрент: Зарегистрирован [2019-06-07 11:10] · скачан: 68 раз
Статус: √ проверено
Размер: 8.99 GB
Как cкачать? Как скачать Королева юга через торрент | qTorrent

% Раздел Тема Автор DL S | L
Зарубежные сериалы [ 7.66 GB ] Королева юга / Queen of the South / Сезон: 4 / Серии: 1-13 из 13 [2019 WEB-DLRip] MVO [LostFilm] bober100 Скачать
1 | 0
Зарубежные сериалы [ 8.37 GB ] Королева юга / Queen of the South / Сезон: 3 / Серии: 1-13 из 13 [2018 WEB-DLRip] MVO [LostFilm] bober100 Скачать
1 | 0
Зарубежные сериалы [ 39.82 GB ] Королева юга / Queen of the South / Сезон: 4 / Серии: 1-13 из 13 [2019 WEB-DL 1080p] MVO [Lostfilm] bober100 Скачать
1 | 0
Зарубежные сериалы [ 8.35 GB ] Королева юга / Queen of the South / Сезон: 2 / Серии: 1-13 из 13 [2017 WEB-DLRip] MVO [LostFilm] bober100 Скачать
2 | 0

28-11-2019 20:33  

Отключить всю рекламу на сайте

07-06-2019 11:17 Королева юга Скачать торрент  

Алиси Сусло Содержащая Сахар и Дрожжи! pb.wtf



07-06-2019 14:10 Королева юга Скачать торрент  

bolvi68 писал(а):

Алиси Сусло Содержащая Сахар и Дрожжи!

ахаха pb.wtf



    Дорогой пользователь! Огромная просьба, поблагодарите релизера, оцените раздачу и оставьте свои комментарий, если Вы скачали Королева юга через торрент бесплатно! Внесите свою лепту в развитие PiratBit!
    Комментировать посты могут только пользователи прошедшие не сложную регистрацию
    Показать сообщения:    

    Королева юга через торрент
    Скачать бесплатно Королева юга
    Королева юга скачать торрент
    Королева юга смотреть онлайн
    Cкачать фильм Королева юга бесплатно
    Королева юга скачать торрент в хорошем качестве
    Королева юга смотреть онлайн бесплатно в хорошем качестве


    Вы не можете начинать темы
    Вы не можете отвечать на сообщения
    Вы не можете редактировать свои сообщения
    Вы не можете удалять свои сообщения
    Вы не можете голосовать в опросах
    Вы не можете прикреплять файлы к сообщениям
    Вы можете скачивать файлы