Ссылка на приватное зеркало всего за 1$. Внимание количество ограничено!!!

OK

1+1

iTunes

мы

OK

1

WEB-DLRip

Джокер

Пифагор

Ведьмак / The Witcher сериал

iTunes

ПШазам

ОК

Оно 2

iTunes

30
pack

Вам бонус

ВАЖНО

!!Акция!!

Alien_RageХит недели

RePack

Resident Evil 21

ИГРА 18+

pack

RePack

jed

RePack

fifa19

RePack

Assassins Creed: Odyssey

RePack

NEED FOR SPEED™ PAYBACK

4 сезон

9 сезон

Бесстыжие 9 сезон

Все сериалы

все сериалы на PB.wtf

RePack

FAR CRY 5
  

Младший брат / Kid Brother (Девин Камерон) [2017, драма, комедия, WEB-DL 720p] MVO ["Синема УС"] pb.wtf

Младший брат через торрент pb.wtf

Размер: 3.11 GB | Добавлен: 7 мес. назад | Торрент скачан:7 раз
Скачать  

07-06-2019 14:42 Младший брат Скачать торрент  

Младший брат / Kid BrotherГод выпуска: 2017
Страна: США
Жанр: драма, комедия
Продолжительность: 01:21:21
Перевод: Любительский (многоголосый) | "Синема УС"
Субтитры: отсутствуют

Режиссер: Девин Камерон

rating

В ролях: Алан Лонгстрит, Тоня Хокинс, Питер Херольд, Дан Соколовски, Рут Дэниелс, Джерри Джарвис, Оливия Пуругганан, Ник Александр, Диллон Пуругганан, Девин Камерон

Описание: Одинокая жизнь Арона резко меняется, когда его младший брат Джаред решает навестить его после окончания школы. Надеясь встретиться с бросившим их отцом, Джаред просит помощи у Арона. Благодаря единственному ответсвенному взрослому человеку - Аманде, Арон понимает, что такое любовь и семья.

Качество: WEB-DL 720p
Формат: MKV
Видео: h.264,5 086 Кбит/с, 1280x720
Аудио#1: Русский, (AC3, 2 ch, 384 Кбит/с)
скриншот  скриншот  скриншот  

Общее
Уникальный идентификатор : 208783126059891404613717825314550957505 (0x9D122ADD187CF7ACB78689BF7E8BC5C1)
Полное имя : D:\Kid.brother.2O17.P.WEB_DL.72Op.mkv
Формат : Matroska
Версия формата : Version 2
Размер файла : 3,11 Гбайт
Продолжительность : 1 ч. 21 м.
Режим общего битрейта : Переменный
Общий поток : 5472 Кбит/сек
Дата кодирования : UTC 2019-05-31 16:48:24
Программа кодирования : mkvmerge v8.3.0 ('Over the Horizon') 64bit
Библиотека кодирования : libebml v1.3.1 + libmatroska v1.4.2

Видео
Идентификатор : 1
Формат : AVC
Формат/Информация : Advanced Video Codec
Профиль формата : High@L4.1
Параметр CABAC формата : Да
Параметр RefFrames формата : 4 кадра
Идентификатор кодека : V_MPEG4/ISO/AVC
Продолжительность : 1 ч. 21 м.
Вид битрейта : Переменный
Битрейт : 5086 Кбит/сек
Максимальный битрейт : 6000 Кбит/сек
Ширина : 1280 пикселей
Высота : 720 пикселей
Соотношение сторон : 16:9
Режим частоты кадров : Постоянный
Частота кадров : 23,976 (24000/1001) кадра/сек
Стандарт вещания : Component
Цветовое пространство : YUV
Субдискретизация насыщенности : 4:2:0
Битовая глубина : 8 бит
Тип развёртки : Прогрессивная
Бит/(Пиксели*Кадры) : 0.225
Размер потока : 2,83 Гбайт (91%)
Default : Да
Forced : Нет
Цветовой диапазон : Limited
Основные цвета : BT.709
Характеристики трансфера : BT.709
Коэффициенты матрицы : BT.709

Аудио
Идентификатор : 2
Формат : AC-3
Формат/Информация : Audio Coding 3
Расширение режима : CM (complete main)
Параметр Endianness формата : Big
Идентификатор кодека : A_AC3
Продолжительность : 1 ч. 21 м.
Вид битрейта : Постоянный
Битрейт : 384 Кбит/сек
Каналы : 2 канала
Расположение каналов : Front: L R
Частота : 48,0 КГц
Частота кадров : 31,250 кадров/сек (1536 spf)
Метод сжатия : С потерями
Размер потока : 223 Мбайт (7%)
Default : Да
Forced : Нет

pb.wtf



Скачать Младший брат через торрент https://d.radikal.ru/d29/1906/22/88dbc6ef7171.jpg Скачать фильм Младший брат через торрент бесплантно в хорошем качестве Описание: Одинокая жизнь Арона резко меняется, когда его младший брат Джаред решает навестить его после окончания школы. Надеясь ... 10 10 3
Торрент: Зарегистрирован [2019-06-07 14:42] · скачан: 7 раз
Статус: T временная
Размер: 3.11 GB
Как cкачать? Как скачать Младший брат через торрент | qTorrent

% Раздел Тема Автор DL S | L
T Фильмы (мультфильмы) cо спонсором показа (Новинки AVI/MKV) [ 1.37 GB ] Младший брат / Kid Brother [2017 WEB-DLRip] MVO ["Синема УС"] bober100 Скачать
1 | 0

28-11-2019 20:33  

Отключить всю рекламу на сайте

    Дорогой пользователь! Огромная просьба, поблагодарите релизера, оцените раздачу и оставьте свои комментарий, если Вы скачали Младший брат через торрент бесплатно! Внесите свою лепту в развитие PiratBit!
    Комментировать посты могут только пользователи прошедшие не сложную регистрацию
    Показать сообщения:    

    Младший брат через торрент
    Скачать бесплатно Младший брат
    Младший брат скачать торрент
    Младший брат смотреть онлайн
    Cкачать фильм Младший брат бесплатно
    Младший брат скачать торрент в хорошем качестве
    Младший брат смотреть онлайн бесплатно в хорошем качестве


    Вы не можете начинать темы
    Вы не можете отвечать на сообщения
    Вы не можете редактировать свои сообщения
    Вы не можете удалять свои сообщения
    Вы не можете голосовать в опросах
    Вы не можете прикреплять файлы к сообщениям
    Вы можете скачивать файлы