Ссылка на приватное зеркало нашего сайта всего за 1$. Внимание количество ограничено!!!

2 сезон

iTunes

iTunes

1

iTunes

iTunes

iTunes

WEBRip

iTunes

30
pack

Вам бонус

ВАЖНО

!!Акция!!

Alien_RageХит недели

RePack

Horizon Zero Dawn

ИГРА 18+

pack

RePack

jed

!!Акция!!

Alien_Rage

RePack

fifa19

RePack

Assassins Creed: Odyssey

RePack

NEED FOR SPEED™ PAYBACK

4 сезон

9 сезон

Бесстыжие 9 сезон

Все сериалы

все сериалы на PB.wtf

RePack

FAR CRY 5
  

Тайны Хэйли Дин: Рецепт Убийства / Hailey Dean Mysteries: A Prescription for Murder (Аллан Хэрмон) [2019, Детектив, HDTVRip 720p] MVO ["Синема УС"] pb.wtf

Тайны Хэйли Дин: Рецепт Убийства через торрент pb.wtf

Размер: 2.87 GB | Добавлен: 1 год 3 мес. назад | Торрент скачан:55 раз
Скачать  

07-06-2019 15:56 Тайны Хэйли Дин: Рецепт Убийства Скачать торрент  

Тайны Хэйли Дин: Рецепт Убийства / Hailey Dean Mysteries: A Prescription for Murder
Год выпуска: 2019
Страна: США
Жанр: Детектив
Продолжительность: 01:24:40
Перевод: Любительский (многоголосый) | "Синема УС"
Субтитры: отсутствуют

Режиссер: Аллан Хэрмон

rating

В ролях: Келли Мартин, Вив Ликок, Мэтью Макколл, Кейтлин Страйкер, Лорен Холли, Люсия Уолтерс, Эмили Холмс, Габриэль Миллер, Брюс Доусон, Брэдли Страйкер, Джоанна Ньюмарч, Кэмерон Бэнкрофт, Хоуи Лай, Барбара Патрик

Описание: Психолог и бывший прокурор, Хэйли Дин, пытается помочь своему другу, детективу Финчеру Гарланду, в расследовании серии убийств в больнице Атланта Мемориал, ведь девушка Финчера - первая подозреваемая в этом деле.

Качество: HDTVRip 720p
Формат: MKV
Видео: h.264,4 472 Кбит/с, 1280x720
Аудио#1: Русский, (AC3, 2 ch, 384 Кбит/с)
скриншот  скриншот  скриншот  

Общее
Уникальный идентификатор : 194164618212807061119310272004667955925 (0x9212BEC7C3927F979BD70BF490975AD5)
Полное имя : D:\hailey.dean.mysteries.prescription.for.murder..2O19.P.HDTV.72Op.mkv
Формат : Matroska
Версия формата : Version 2
Размер файла : 2,87 Гбайт
Продолжительность : 1 ч. 24 м.
Режим общего битрейта : Переменный
Общий поток : 4858 Кбит/сек
Дата кодирования : UTC 2019-05-31 16:44:19
Программа кодирования : mkvmerge v8.3.0 ('Over the Horizon') 64bit
Библиотека кодирования : libebml v1.3.1 + libmatroska v1.4.2

Видео
Идентификатор : 1
Формат : AVC
Формат/Информация : Advanced Video Codec
Профиль формата : High@L4.1
Параметр CABAC формата : Да
Параметр RefFrames формата : 4 кадра
Идентификатор кодека : V_MPEG4/ISO/AVC
Продолжительность : 1 ч. 24 м.
Вид битрейта : Переменный
Битрейт : 4472 Кбит/сек
Максимальный битрейт : 5000 Кбит/сек
Ширина : 1280 пикселей
Высота : 720 пикселей
Соотношение сторон : 16:9
Режим частоты кадров : Постоянный
Частота кадров : 23,976 (24000/1001) кадра/сек
Стандарт вещания : Component
Цветовое пространство : YUV
Субдискретизация насыщенности : 4:2:0
Битовая глубина : 8 бит
Тип развёртки : Прогрессивная
Бит/(Пиксели*Кадры) : 0.198
Размер потока : 2,59 Гбайт (90%)
Default : Да
Forced : Нет
Цветовой диапазон : Limited
Основные цвета : BT.709
Характеристики трансфера : BT.709
Коэффициенты матрицы : BT.709

Аудио
Идентификатор : 2
Формат : AC-3
Формат/Информация : Audio Coding 3
Расширение режима : CM (complete main)
Параметр Endianness формата : Big
Идентификатор кодека : A_AC3
Продолжительность : 1 ч. 24 м.
Вид битрейта : Постоянный
Битрейт : 384 Кбит/сек
Каналы : 2 канала
Расположение каналов : Front: L R
Частота : 48,0 КГц
Частота кадров : 31,250 кадров/сек (1536 spf)
Метод сжатия : С потерями
Размер потока : 233 Мбайт (8%)
Default : Да
Forced : Нет

pb.wtf



Скачать Тайны Хэйли Дин: Рецепт Убийства через торрент https://a.radikal.ru/a07/1906/ef/0a067d32cb03.jpg Скачать фильм Тайны Хэйли Дин: Рецепт Убийства через торрент бесплантно в хорошем качестве Описание: Психолог и бывший прокурор, Хэйли Дин, пытается помочь своему другу, детективу Финчеру Гарланду, в расследовании серии убийств в ... 10 10 5
Торрент: Зарегистрирован [2019-06-07 15:56] · скачан: 55 раз
Статус: T временная
Размер: 2.87 GB
Как cкачать? Как скачать Тайны Хэйли Дин: Рецепт Убийства через торрент | qTorrent

% Раздел Тема Автор DL S | L
T Фильмы (мультфильмы) cо спонсором показа (Новинки AVI/MKV) [ 1.37 GB ] Тайны Хэйли Дин: Рецепт Убийства / Hailey Dean Mysteries: A Prescription for Murder [2019 HDTVRip] MVO ["Синема УС"] bober100 Скачать
1 | 0

28-11-2019 20:33  

Отключить всю рекламу на сайте

    Дорогой пользователь! Огромная просьба, поблагодарите релизера, оцените раздачу и оставьте свои комментарий, если Вы скачали Тайны Хэйли Дин: Рецепт Убийства через торрент бесплатно! Внесите свою лепту в развитие PiratBit!
    Комментировать посты могут только пользователи прошедшие не сложную регистрацию
    Показать сообщения:    

    Тайны Хэйли Дин: Рецепт Убийства через торрент
    Скачать бесплатно Тайны Хэйли Дин: Рецепт Убийства
    Тайны Хэйли Дин: Рецепт Убийства скачать торрент
    Тайны Хэйли Дин: Рецепт Убийства смотреть онлайн
    Cкачать фильм Тайны Хэйли Дин: Рецепт Убийства бесплатно
    Тайны Хэйли Дин: Рецепт Убийства скачать торрент в хорошем качестве
    Тайны Хэйли Дин: Рецепт Убийства смотреть онлайн бесплатно в хорошем качестве


    Вы не можете начинать темы
    Вы не можете отвечать на сообщения
    Вы не можете редактировать свои сообщения
    Вы не можете удалять свои сообщения
    Вы не можете голосовать в опросах
    Вы не можете прикреплять файлы к сообщениям
    Вы можете скачивать файлы