новый адрес пиратбит piratbit
Мега распродажа FORZA HORIZON 4 ULTIMATE+ВСЕ DLC+ОНЛАЙН всего за 499р. 349 руб. (супер цена). Внимание количество ограничено!!!

iTunes

1+1

iTunes

мы

iTunes

1

iTunes

Чернобыль

iTunes

Ральф против интернета

Лицензия

ПШазам

Лицензия

Игра престолов

Лицензия

30
pack

ВАЖНО

!!Акция!!

Alien_RageХит недели

RePack

Resident Evil 21

ИГРА 18+

pack

RePack

Metro:Exodus

!!Акция!!

Alien_Rage

RePack

fifa19

RePack

Assassins Creed: Odyssey

RePack

NEED FOR SPEED™ PAYBACK

3 сезон

9 сезон

Бесстыжие 9 сезон

Все сериалы

все сериалы на PB.wtf

RePack

FAR CRY 5
Ребята, катастрофически не хватает 1900р. для оплаты серверов за Октябрь (всвязи с блокировками трафик упал в 3 раза), 1-2р., выручайте.
  

Удивительный мир Марвена / Welcome to Marwen (Роберт Земекис) [2018, Фэнтези, драма, комедия, биография, BDRip-AVC] DUB [Лицензия] +MVO [HDRezka Studio] pb.wtf

Удивительный мир Марвена через торрент pb.wtf

Раздают: 3 [ 0 KB/s ]
Размер: 2.36 GB | Добавлен: 5 мес. 6 д. назад | Торрент скачан:134 раза
Скачать  

07-06-2019 18:28 Удивительный мир Марвена Скачать торрент  

Удивительный мир Марвена / Welcome to Marwen«The Director of FORREST GUMP Invites You to a Most Unexpected Place»
Год выпуска: 2018
Страна: США
Жанр: Фэнтези, драма, комедия, биография
Продолжительность: 01:55:56
Перевод:

Дублированный | Лицензия
Профессиональный многоголосый | HDRezka Studio

Субтитры: Русские (форс., полные), Английские (полные, SDH)

Режиссер: Роберт Земекис

rating

В ролях:

Стив Карелл (Mark Hogancamp / Cap'n Hogie), Фальк Хеншел (Captain Topf / Louis), Мэтью О’Лири (Lieutenant Benz / Carl), Николай Вич (Rudolph / Rudy), Патрик Роккас (Stefan / Stevie), Alexander Lowe (Werner / Vern), Эйса Гонсалес (Carlala), Лесли Земекис (Suzette), Мерритт Уивер (Roberta), Гвендолин Кристи (Anna), Стефани фон Пфеттен (Wendy), Жанель Моне (GI Julie)
Описание:

История о жертве уличного нападения Марке Хоганкэмпе, который оправлялся от психологической травмы с помощью «кукольной» терапии. Во дворе своего дома он выстроил игрушечный город времён Второй мировой войны и населил его фигурками, похожими на реальных людей из своего прошлого.

Качество: BDRip-AVC
Формат: MKV

Видео: 1024x428 (2.40:1), 23,976 fps, x264 ~1 821 kbps avg, 0.173 bit/pixel
Аудио#1: 48 kHz, AC3 Dolby Digital, 3/2 (L,C,R,l,r) + LFE ch, ~448.00 kbps avg | RUS (Лицензия)
Аудио#2: 48 kHz, AC3 Dolby Digital, 2 (L,R) ch, ~192.00 kbps avg | RUS (HDRezka Studio)
Аудио#3: 48 kHz, AC3 Dolby Digital, 3/2 (L,C,R,l,r) + LFE ch, ~448.00 kbps avg | ENG
скриншот  скриншот  скриншот  скриншот  скриншот  

Общее
Уникальный идентификатор : 8471901528211702966884182302252025697 (0x65FA0FE892B1675726164741B834761)
Полное имя : F:OlLanDGroupWelcome.To.Marwen.2018.BDRip.(AVC).OlLanDGroup.mkv
Формат : Matroska
Версия формата : Version 4 / Version 2
Размер файла : 2,36 Гбайт
Продолжительность : 1 ч. 55 м.
Общий поток : 2912 Кбит/сек
Название фильма : Удивительный мир Марвена.2018 #TorpedoUK#
Дата кодирования : UTC 2019-06-07 12:31:51
Программа кодирования : mkvmerge v29.0.0 ('Like It Or Not') 64-bit
Библиотека кодирования : libebml v1.3.6 + libmatroska v1.4.9
Обложка : Yes
Attachments : Cover - Welcome.To.Marwen.png

Видео
Идентификатор : 1
Формат : AVC
Формат/Информация : Advanced Video Codec
Профиль формата : High@L4.1
Параметр CABAC формата : Да
Параметр ReFrames формата : 10 кадров
Идентификатор кодека : V_MPEG4/ISO/AVC
Продолжительность : 1 ч. 55 м.
Битрейт : 1821 Кбит/сек
Ширина : 1024 пикселя
Высота : 428 пикселей
Соотношение сторон : 2,40:1
Режим частоты кадров : Постоянный
Частота кадров : 23,976 (24000/1001) кадра/сек
Цветовое пространство : YUV
Субдискретизация насыщенности : 4:2:0
Битовая глубина : 8 бит
Тип развёртки : Прогрессивная
Бит/(Пиксели*Кадры) : 0.173
Размер потока : 1,47 Гбайт (63%)
Библиотека кодирования : x264 core 146 r2538 121396c
Настройки программы : cabac=1 / ref=10 / deblock=1:-3:-3 / analyse=0x3:0x113 / me=umh / subme=11 / psy=1 / psy_rd=1.00:0.03 / mixed_ref=1 / me_range=48 / chroma_me=1 / trellis=2 / 8x8dct=1 / cqm=0 / deadzone=21,11 / fast_pskip=1 / chroma_qp_offset=-3 / threads=6 / lookahead_threads=1 / sliced_threads=0 / nr=0 / decimate=1 / interlaced=0 / bluray_compat=0 / constrained_intra=0 / bframes=11 / b_pyramid=2 / b_adapt=2 / b_bias=0 / direct=3 / weightb=1 / open_gop=0 / weightp=2 / keyint=240 / keyint_min=23 / scenecut=40 / intra_refresh=0 / rc_lookahead=40 / rc=2pass / mbtree=0 / bitrate=1821 / ratetol=1.0 / qcomp=0.60 / qpmin=0 / qpmax=69 / qpstep=4 / cplxblur=20.0 / qblur=0.5 / vbv_maxrate=50000 / vbv_bufsize=62500 / nal_hrd=none / filler=0 / ip_ratio=1.40 / pb_ratio=1.30 / aq=1:1.00
Язык : English
Default : Да
Forced : Нет

Аудио #1
Идентификатор : 2
Формат : AC-3
Формат/Информация : Audio Coding 3
Расширение режима : CM (complete main)
Параметр Endianness формата : Big
Идентификатор кодека : A_AC3
Продолжительность : 1 ч. 55 м.
Вид битрейта : Постоянный
Битрейт : 448 Кбит/сек
Каналы : 6 каналов
Расположение каналов : Front: L C R, Side: L R, LFE
Частота : 48,0 КГц
Частота кадров : 31,250 кадров/сек (1536 spf)
Битовая глубина : 16 бит
Метод сжатия : С потерями
Размер потока : 372 Мбайт (15%)
Заголовок : DUB [License]
Язык : Russian
Default : Да
Forced : Нет

Аудио #2
Идентификатор : 3
Формат : AC-3
Формат/Информация : Audio Coding 3
Расширение режима : CM (complete main)
Параметр Endianness формата : Big
Идентификатор кодека : A_AC3
Продолжительность : 1 ч. 55 м.
Вид битрейта : Постоянный
Битрейт : 192 Кбит/сек
Каналы : 2 канала
Расположение каналов : Front: L R
Частота : 48,0 КГц
Частота кадров : 31,250 кадров/сек (1536 spf)
Битовая глубина : 16 бит
Метод сжатия : С потерями
Размер потока : 159 Мбайт (7%)
Заголовок : MVO [HDRezka Studio]
Язык : Russian
Default : Нет
Forced : Нет

Аудио #3
Идентификатор : 4
Формат : AC-3
Формат/Информация : Audio Coding 3
Расширение режима : CM (complete main)
Параметр Endianness формата : Big
Идентификатор кодека : A_AC3
Продолжительность : 1 ч. 55 м.
Вид битрейта : Постоянный
Битрейт : 448 Кбит/сек
Каналы : 6 каналов
Расположение каналов : Front: L C R, Side: L R, LFE
Частота : 48,0 КГц
Частота кадров : 31,250 кадров/сек (1536 spf)
Битовая глубина : 16 бит
Метод сжатия : С потерями
Размер потока : 372 Мбайт (15%)
Заголовок : [Original]
Язык : English
Default : Нет
Forced : Нет

Текст #1
Идентификатор : 5
Формат : UTF-8
Идентификатор кодека : S_TEXT/UTF8
Идентификатор кодека/Информация : UTF-8 Plain Text
Продолжительность : 1 ч. 54 м.
Битрейт : 0 бит/сек
Count of elements : 12
Размер потока : 857 байт (0%)
Заголовок : Forced
Язык : Russian
Default : Да
Forced : Нет

Текст #2
Идентификатор : 6
Формат : UTF-8
Идентификатор кодека : S_TEXT/UTF8
Идентификатор кодека/Информация : UTF-8 Plain Text
Продолжительность : 1 ч. 48 м.
Битрейт : 83 бит/сек
Count of elements : 1384
Размер потока : 66,1 Кбайт (0%)
Заголовок : Full
Язык : Russian
Default : Нет
Forced : Нет

Текст #3
Идентификатор : 7
Формат : UTF-8
Идентификатор кодека : S_TEXT/UTF8
Идентификатор кодека/Информация : UTF-8 Plain Text
Продолжительность : 1 ч. 46 м.
Битрейт : 52 бит/сек
Count of elements : 1464
Размер потока : 41,2 Кбайт (0%)
Заголовок : Full
Язык : English
Default : Нет
Forced : Нет

Текст #4
Идентификатор : 8
Формат : UTF-8
Идентификатор кодека : S_TEXT/UTF8
Идентификатор кодека/Информация : UTF-8 Plain Text
Продолжительность : 1 ч. 46 м.
Битрейт : 62 бит/сек
Count of elements : 1663
Размер потока : 48,7 Кбайт (0%)
Заголовок : SDH
Язык : English
Default : Нет
Forced : Нет

Меню
00:00:00.000 : en:Chapter 01
00:04:17.257 : en:Chapter 02
00:10:57.448 : en:Chapter 03
00:16:42.876 : en:Chapter 04
00:22:26.970 : en:Chapter 05
00:27:34.819 : en:Chapter 06
00:35:10.775 : en:Chapter 07
00:41:09.216 : en:Chapter 08
00:45:59.173 : en:Chapter 09
00:51:35.634 : en:Chapter 10
01:00:35.923 : en:Chapter 11
01:03:30.973 : en:Chapter 12
01:08:07.249 : en:Chapter 13
01:13:38.705 : en:Chapter 14
01:17:14.713 : en:Chapter 15
01:25:13.525 : en:Chapter 16
01:30:48.484 : en:Chapter 17
01:39:34.718 : en:Chapter 18
01:43:31.371 : en:Chapter 19
01:48:50.106 : en:Chapter 20

pb.wtf



Скачать Удивительный мир Марвена через торрент https://c.radikal.ru/c20/1904/79/70ab6540cd65.jpg Скачать фильм Удивительный мир Марвена через торрент бесплантно в хорошем качестве Описание: История о жертве уличного нападения Марке Хоганкэмпе, который оправлялся от психологической травмы с помощью «кукольной» терапии. ... 10 10 4
Info! Золотая раздача, скачанное не засчитывается.
Торрент: Зарегистрирован [2019-06-07 18:28] · скачан: 134 раз
Статус: √ проверено
Размер: 2.36 GB
Как cкачать? Как скачать Удивительный мир Марвена через торрент | qTorrent

% Раздел Тема Автор DL S | L
Ultra HD (UHD: 2K, 4K, 8K) — видео сверхвысокой чёткости [ 17.67 GB ] Удивительный мир Марвена / Welcome to Marwen [2018 UHD WEBRip 2160p] DUB [] sheker187 Скачать
2 | 0
Фильмы 2018 [DVDrip, WEB-DLRip, HDrip] (DUB, MVO) [ 747 MB ] Удивительный мир Марвена / Welcome to Marwen [2018 биография HDRip] DUB [] bober100 Скачать
1 | 0
Фильмы 2018 [DVDrip, WEB-DLRip, HDrip] (DUB, MVO) [ 1.46 GB ] Удивительный мир Марвена / Welcome to Marwen [2018 биография BDRip] - [] Twi7ter Скачать
15 | 1
Фильмы 2018 [DVDrip, WEB-DLRip, HDrip] (DUB, MVO) [ 2.18 GB ] Удивительный мир Марвена / Welcome to Marwen [2018 биография BDRip] - [] Twi7ter Скачать
15 | 0
Фильмы [HD 720p, 1080p] (Хороший звук DUB, MVO) [ 6.3 GB ] Удивительный мир Марвена / Welcome to Marwen [2018 биография BDRip 720p] DUB [] bober100 Скачать
4 | 0
Фильмы 2018 [DVDrip, WEB-DLRip, HDrip] (DUB, MVO) [ 1.46 GB ] Удивительный мир Марвена / Welcome to Marwen [2018 биография BDRip] DUB [ Blu-Ray EUR] bober100 Скачать
60 | 0
Фильмы [HD 720p, 1080p] (Хороший звук DUB, MVO) [ 10.4 GB ] Удивительный мир Марвена / Welcome to Marwen [2018 биография BDRip 1080p] DUB [] bober100 Скачать
6 | 0


>> Регистрируемся здесь <<






Отзывы и комментарии о схеме читаем и пишем здесь: ---> Отзывы и комментарии о схеме

Новые благодарочки в телеграм довольных пользователей:
скриншот   скриншот   скриншот   скриншот   скриншот

18-10-2019 17:09 Удивительный мир Марвена Скачать торрент  

очень даже ничегоpb.wtf



    Дорогой пользователь! Огромная просьба, поблагодарите релизера, оцените раздачу и оставьте свои комментарий, если Вы скачали Удивительный мир Марвена через торрент бесплатно! Внесите свою лепту в развитие PiratBit!
    Комментировать посты могут только пользователи прошедшие не сложную регистрацию
    Показать сообщения:    

    Удивительный мир Марвена через торрент
    Скачать бесплатно Удивительный мир Марвена
    Удивительный мир Марвена скачать торрент
    Удивительный мир Марвена смотреть онлайн
    Cкачать фильм Удивительный мир Марвена бесплатно
    Удивительный мир Марвена скачать торрент в хорошем качестве
    Удивительный мир Марвена смотреть онлайн бесплатно в хорошем качестве


    Вы не можете начинать темы
    Вы не можете отвечать на сообщения
    Вы не можете редактировать свои сообщения
    Вы не можете удалять свои сообщения
    Вы не можете голосовать в опросах
    Вы не можете прикреплять файлы к сообщениям
    Вы можете скачивать файлы