Ссылка на приватное зеркало всего за 1$. Внимание количество ограничено!!!

iTunes

1+1

iTunes

мы

WEB-DL

1

iTunes

Чернобыль

iTunes

Ральф против интернета

Лицензия

ПШазам

Лицензия

Оно 2

Лицензия

30
pack

Вам бонус

ВАЖНО

!!Акция!!

Alien_RageХит недели

RePack

Resident Evil 21

ИГРА 18+

pack

RePack

jed

!!Акция!!

Alien_Rage

RePack

fifa19

RePack

Assassins Creed: Odyssey

RePack

NEED FOR SPEED™ PAYBACK

3 сезон

9 сезон

Бесстыжие 9 сезон

Все сериалы

все сериалы на PB.wtf

RePack

FAR CRY 5
Ребята, катастрофически не хватает 1900р. для оплаты серверов за Октябрь (всвязи с блокировками трафик упал в 3 раза), 1-2р., выручайте.
  

Свой среди чужих, чужой среди своих (Никита Михалков) [1974, Боевик, драма, HDTV 1080i] pb.wtf

Свой среди чужих, чужой среди своих через торрент pb.wtf

Размер: 4.7 GB | Добавлен: 6 мес. назад | Торрент скачан:31 раз
Скачать  

07-06-2019 19:54 Свой среди чужих, чужой среди своих Скачать торрент  

Свой среди чужих, чужой среди своих Год выпуска: 1974
Страна: СССР
Жанр: Боевик, драма
Продолжительность: 01:32:15
Субтитры: отсутствуют

Режиссер: Никита Михалков

rating

В ролях:

Юрий Богатырёв, Анатолий Солоницын, Сергей Шакуров, Александр Пороховщиков, Николай Пастухов, Александр Кайдановский, Никита Михалков, Николай Засухин, Александр Калягин, Константин Райкин, Александр Яковлев, Борис Галкин, Юрий Кузнецов, Екатерина Шадрина, Михаил Кислов, Виталий Комиссаров, Анатолий Борисов, Геннадий Крашенинников

Описание:

Действие этого психологического «вестерна» происходит в 20-е годы в маленьком губернском городке на юге России. Гражданская война кончилась, но до полной победы большевиков еще далеко. Группа бандитов из бывших белых офицеров грабит поезд с золотом, на которое нужно было купить хлеб для голодающих, и пятеро друзей, бывших красных бойцов, вступают с ними в смертельную схватку.

Получается так, что подозрение в предательстве падает на одного из них (первая роль Богатырева в полнометражном кино), и, сбежав от товарищей, он один должен вернуть золото, чтобы доказать свою невиновность.

Качество: HDTV 1080i
Формат: TS

Видео: 1920x1080 (16:9), 25 fps, MPEG-4 AVC ~ 6742 Кbps avg, 0.130 bit/pixel
Аудио: МР2, 48 kHz, 2 ch, ~192.00 kbps avg | русский |
скриншот  скриншот  скриншот  скриншот  скриншот  

скриншот  скриншот  скриншот  скриншот  скриншот  

Общее
Идентификатор : 1 (0x1)
Полное имя : Свой среди чужих, чужой среди своих.ts
Формат : MPEG-TS
Размер файла : 4,70 Гбайт
Продолжительность : 1 ч. 32 м.
Режим общего битрейта : Переменный
Общий поток : 7297 Кбит/сек

Видео
Идентификатор : 201 (0xC9)
Идентификатор меню : 1 (0x1)
Формат : AVC
Формат/Информация : Advanced Video Codec
Профиль формата : High@L4
Настройки формата : CABAC / 4 Ref Frames
Параметр CABAC формата : Да
Параметр RefFrames формата : 4 кадра
Идентификатор кодека : 27
Продолжительность : 1 ч. 32 м.
Битрейт : 6742 Кбит/сек
Ширина : 1920 пикселей
Высота : 1080 пикселей
Соотношение сторон : 16:9
Частота кадров : 25,000 кадров/сек
Стандарт вещания : Component
Цветовое пространство : YUV
Субдискретизация насыщенности : 4:2:0
Битовая глубина : 8 бит
Тип развёртки : Чересстрочная
Метод сохранения типа развёртки : Раздельные поля
Порядок развёртки : Верхнее поле первое
Бит/(Пиксели*Кадры) : 0.130
Размер потока : 4,34 Гбайт (92%)
Цветовой диапазон : Limited
Основные цвета : BT.709
Характеристики трансфера : BT.709
Коэффициенты матрицы : BT.709

Аудио
Идентификатор : 301 (0x12D)
Идентификатор меню : 1 (0x1)
Формат : MPEG Audio
Версия формата : Version 1
Профиль формата : Layer 2
Идентификатор кодека : 3
Продолжительность : 1 ч. 32 м.
Вид битрейта : Постоянный
Битрейт : 192 Кбит/сек
Каналы : 2 канала
Частота : 48,0 КГц
Частота кадров : 41,667 кадра/сек (1152 SPF)
Метод сжатия : С потерями
Размер потока : 127 Мбайт (3%)
Язык : Russian

pb.wtf



Скачать Свой среди чужих, чужой среди своих через торрент http://i31.fastpic.ru/big/2012/0316/37/d7a1afc89032e0cb223d52494dd52937.png Скачать фильм Свой среди чужих, чужой среди своих через торрент бесплантно в хорошем качестве Описание: Действие этого психологического «вестерна» происходит в 20-е годы в маленьком губернском городке на юге России. Гражданская война ... 10 10 3
Торрент: Зарегистрирован [2019-06-07 19:54] · скачан: 31 раз
Статус: √ проверено
Размер: 4.7 GB
Как cкачать? Как скачать Свой среди чужих, чужой среди своих через торрент | qTorrent

% Раздел Тема Автор DL S | L
Родина / Чужой среди своих / Homeland [ 8.15 GB ] Родина / Чужой среди своих / Homeland / Сезон: 7 / Серии: 1-12 из 12 [2018 WEB-DLRip] MVO [Амедиа] bober100 Скачать
1 | 0
Приключения-путешествия [ 219 MB ] Эдуард Володарский Никита Михалков - Свой среди чужих чужой среди своих [Вячеслав Манылов 1876 96 kbps MP3] bober100 Скачать
1 | 0
Родина / Чужой среди своих / Homeland [ 8.06 GB ] Родина / Чужой среди своих / Homeland / Сезон: 7 / Серии: 1-12 из 12 [2018 WEB-DLRip] MVO [Lostfilm] bober100 Скачать
2 | 0
Родина / Чужой среди своих / Homeland [ 7.7 GB ] Родина / Чужой среди своих / Homeland / Сезон: 7 / Серии: 1-12 из 12 [2018 WEB-DLRip] DVO [SunshineStudio] bober100 Скачать
1 | 0
Родина / Чужой среди своих / Homeland [ 13.63 GB ] Родина / Чужой среди своих / Homeland / Сезон: 7 / Серии: 1-12 из 12 [2018 WEB-DL 720p] DVO [SunshineStudio] bober100 Скачать
2 | 2
Родина / Чужой среди своих / Homeland [ 53.65 GB ] Родина / Чужой среди своих / Homeland / Сезон: 7 / Серии: 1-12 из 12 [2018 WEB-DL 1080p] MVO [Амедиа] bober100 Скачать
1 | 0
Родина / Чужой среди своих / Homeland [ 16.89 GB ] Родина / Чужой среди своих / Homeland / Сезон: 7 / Серии: 1-12 из 12 [2018 WEB-DL 720p] MVO [Amedia] bober100 Скачать
1 | 0

28-11-2019 20:33  

Отключить всю рекламу на сайте


    Дорогой пользователь! Огромная просьба, поблагодарите релизера, оцените раздачу и оставьте свои комментарий, если Вы скачали Свой среди чужих, чужой среди своих через торрент бесплатно! Внесите свою лепту в развитие PiratBit!
    Комментировать посты могут только пользователи прошедшие не сложную регистрацию
    Показать сообщения:    

    Свой среди чужих, чужой среди своих через торрент
    Скачать бесплатно Свой среди чужих, чужой среди своих
    Свой среди чужих, чужой среди своих скачать торрент
    Свой среди чужих, чужой среди своих смотреть онлайн
    Cкачать фильм Свой среди чужих, чужой среди своих бесплатно
    Свой среди чужих, чужой среди своих скачать торрент в хорошем качестве
    Свой среди чужих, чужой среди своих смотреть онлайн бесплатно в хорошем качестве


    Вы не можете начинать темы
    Вы не можете отвечать на сообщения
    Вы не можете редактировать свои сообщения
    Вы не можете удалять свои сообщения
    Вы не можете голосовать в опросах
    Вы не можете прикреплять файлы к сообщениям
    Вы можете скачивать файлы