Мега распродажа FORZA HORIZON 4 ULTIMATE+ВСЕ DLC+ОНЛАЙН всего за 499р. 349 руб. (супер цена). Внимание количество ограничено!!!

Лицензия

30

iTunes

мы

iTunes

1

1 сезон

Чернобыль

1 сезон

Ральф против интернета

MVO

Покемон. Детектив Пикачу

8 сезон

Игра престолов

iTunes

1+1

ИГРА 18+

pack

ВАЖНО

!!Акция!!

Alien_RageХит недели

RePack

Resident Evil 21
pack

RePack

Metro:Exodus

!!Акция!!

Alien_Rage

RePack

fifa19

RePack

Assassins Creed: Odyssey

RePack

NEED FOR SPEED™ PAYBACK

3 сезон

9 сезон

Бесстыжие 9 сезон

Все сериалы

все сериалы на PB.wtf

RePack

FAR CRY 5
Ребята, катастрофически не хватает 2730р. для оплаты серверов за МАЙ (всвязи с блокировками трафик упал в 3 раза), 1-2р., выручайте.
  

Болотная тварь / Swamp Thing / Сезон: 1 / Серии: 1-4 из 10 (Лен Уайзман, Кэрол Бенкер, Тоа Фрейзер) [2019, Ужасы, фантастика, фэнтези, боевик, драма, WEBRip 720p] MVO [Octopus] pb.wtf

Болотная тварь через торрент pb.wtf

Раздают: 6 [ 12 KB/s ] Качают: 8 [ 0 KB/s ]
Размер: 8.41 GB | Добавлен: 3 д. назад | Торрент скачан:48 раз
Скачать  

08-06-2019 04:33 Болотная тварь Скачать торрент  

Болотная тварь / Swamp Thing
Год выпуска: 2019
Страна: США
Жанр: Ужасы, фантастика, фэнтези, боевик, драма
Продолжительность: ~ 01:00:00
Перевод: Любительский (многоголосый) | Octopus
Субтитры: отсутствуют

Режиссер: Лен Уайзман, Кэрол Бенкер, Тоа Фрейзер

rating

В ролях:

Кристал Рид, Энди Бин, Дерек Мирс, Хендерсон Вэйд, Дженнифер Билз, Вирджиния Мэдсен, Уилл Пэттон, Мария Стэн, Селена Андусе, Кевин Дюран и др.

Описание:

Микробиолог Эбби Аркейн возвращается в родной город — здесь разбушевался смертельный вирус, который необходимо изучить и нейтрализовать. Она знакомится с коллегой Алеком Холландом, их совместная работа стремительно перерастает в романтические отношения, но на всем этом ставит точку несчастный случай на болоте, в результате которого Алек погибает. Убитая горем Эбби еще не знает, что ее ждет новая встреча с возлюбленным, который теперь превратился в человекообразное растение с супергеройскими способностями.

Качество: WEBRip 720p
Формат: MKV

Видео: h.264 ~ 5500 Кбит/с, 1280x536
Аудио: Русский, (AC3, 2 ch, 384 Кбит/с)
скриншот  скриншот  скриншот  

Общее
Уникальный идентификатор : 230959235157655532708897545241790207218 (0xADC121750CC844D2BDA372E9E6CF54F2)
Полное имя : D:\Swamp.Thing.S01.720p.Octopus\Swamp.Thing.2019.S01E01.720p.Octopus.mkv
Формат : Matroska
Версия формата : Version 2
Размер файла : 2,47 Гбайт
Продолжительность : 1 ч. 0 м.
Общий поток : 5866 Кбит/сек
Дата кодирования : UTC 2019-05-31 23:53:46
Программа кодирования : mkvmerge v8.3.0 ('Over the Horizon') 32bit
Библиотека кодирования : libebml v1.3.1 + libmatroska v1.4.2

Видео
Идентификатор : 1
Формат : AVC
Формат/Информация : Advanced Video Codec
Профиль формата : High@L3.1
Параметр CABAC формата : Да
Параметр RefFrames формата : 4 кадра
Идентификатор кодека : V_MPEG4/ISO/AVC
Продолжительность : 1 ч. 0 м.
Битрейт : 5500 Кбит/сек
Ширина : 1280 пикселей
Высота : 536 пикселей
Соотношение сторон : 2,40:1
Режим частоты кадров : Постоянный
Частота кадров : 23,976 (24000/1001) кадра/сек
Цветовое пространство : YUV
Субдискретизация насыщенности : 4:2:0
Битовая глубина : 8 бит
Тип развёртки : Прогрессивная
Бит/(Пиксели*Кадры) : 0.334
Размер потока : 2,26 Гбайт (91%)
Библиотека кодирования : x264 core 142 r2431+42 c69a006 tMod [8-bit@all X86_64]
Настройки программы : cabac=1 / ref=1 / deblock=1:0:0 / analyse=0x3:0x113 / me=hex / subme=2 / psy=1 / fade_compensate=0.00 / psy_rd=1.00:0.00 / mixed_ref=0 / me_range=16 / chroma_me=1 / trellis=0 / 8x8dct=1 / cqm=0 / deadzone=21,11 / fast_pskip=1 / chroma_qp_offset=0 / threads=24 / lookahead_threads=4 / sliced_threads=0 / nr=0 / decimate=1 / interlaced=0 / bluray_compat=0 / constrained_intra=0 / fgo=0 / bframes=2 / b_pyramid=2 / b_adapt=1 / b_bias=0 / direct=1 / weightb=1 / open_gop=0 / weightp=1 / keyint=250 / keyint_min=23 / scenecut=40 / intra_refresh=0 / rc_lookahead=10 / rc=abr / mbtree=1 / bitrate=5500 / ratetol=1.0 / qcomp=0.60 / qpmin=0:0:0 / qpmax=69:69:69 / qpstep=4 / ip_ratio=1.40 / aq=1:1.00 / aq-sensitivity=10.00 / aq-factor=1.00:1.00:1.00 / aq2=0 / aq3=0
Default : Да
Forced : Нет

Аудио
Идентификатор : 2
Формат : AC-3
Формат/Информация : Audio Coding 3
Расширение режима : CM (complete main)
Параметр Endianness формата : Big
Идентификатор кодека : A_AC3
Продолжительность : 1 ч. 0 м.
Вид битрейта : Постоянный
Битрейт : 384 Кбит/сек
Каналы : 2 канала
Расположение каналов : Front: L R
Частота : 48,0 КГц
Частота кадров : 31,250 кадров/сек (1536 spf)
Метод сжатия : С потерями
Размер потока : 165 Мбайт (7%)
Default : Да
Forced : Нет

Когда раздача ведётся путём добавления новых серий, при каждом добавлении создётся новый торрент. Чтобы начать докачку новой серии, пользователям необходимо сделать следующее:
(1) остановить скачивание,
(2) удалить старый торрент у себя из клиента (старые серии удалять не надо),
(3) скачать новый торрент и запустить его у себя в клиенте вместо старого, при этом указать клиенту путь в старую папку, куда и должно происходить скачивание новых серий.
Ваш клиент при этом должен произвести хеширование (проверку) старой папки (если не производит сам - помогите ему сделать это), и будет докачивать только те серии, которых у вас ещё нет. Старые серии при этом не удаляются, а продолжают раздаваться!
Eсли вы уже удалили старые серии, то предотвратить повторную закачку старых серий можно, отжав галочку в соответсвующих местах при запуске нового торрента. По возможности, желательно не удалять старые серии как можно дольше, чтобы релизёр не столько продолжал раздавать старые серии, а смог сконцентрироваться на новых.
pb.wtf



Скачать Болотная тварь через торрент https://c.radikal.ru/c09/1905/b7/9abc991586d2.jpg Скачать фильм Болотная тварь через торрент бесплантно в хорошем качестве Описание: Микробиолог Эбби Аркейн возвращается в родной город — здесь разбушевался смертельный вирус, который необходимо изучить и ... 8 10 4
Торрент: Зарегистрирован [2019-06-22 03:45] · скачан: 48 раз
Статус: √ проверено
Размер: 8.41 GB
Как cкачать? Как скачать Болотная тварь через торрент | qTorrent

% Раздел Тема Автор DL S | L
Зарубежные сериалы [ 3.26 GB ] Болотная тварь / Swamp Thing / Сезон: 1 / Серии: 1-4 из 10 [2019 WEBRip] MVO [Octopus] bober100 Скачать
8 | 3
Зарубежные сериалы [ 10.72 GB ] Болотная тварь / Swamp Thing / Сезон: 1 / Серии: 1-4 из 10 [2019 WEBRip 1080p] MVO [Octopus] bober100 Скачать
6 | 6


>> Регистрируемся здесь <<






Отзывы и комментарии о схеме читаем и пишем здесь: ---> Отзывы и комментарии о схеме

Новые благодарочки в телеграм довольных пользователей:
скриншот   скриншот   скриншот   скриншот   скриншот
    Дорогой пользователь! Огромная просьба, поблагодарите релизера, оцените раздачу и оставьте свои комментарий, если Вы скачали Болотная тварь через торрент бесплатно! Внесите свою лепту в развитие PiratBit!
    Комментировать посты могут только пользователи прошедшие не сложную регистрацию
    Показать сообщения:    

    Болотная тварь через торрент
    Скачать бесплатно Болотная тварь
    Болотная тварь скачать торрент
    Болотная тварь смотреть онлайн
    Cкачать фильм Болотная тварь бесплатно
    Болотная тварь скачать торрент в хорошем качестве
    Болотная тварь смотреть онлайн бесплатно в хорошем качестве


    Вы не можете начинать темы
    Вы не можете отвечать на сообщения
    Вы не можете редактировать свои сообщения
    Вы не можете удалять свои сообщения
    Вы не можете голосовать в опросах
    Вы не можете прикреплять файлы к сообщениям
    Вы можете скачивать файлы