Ссылка на приватное зеркало нашего сайта всего за 1$. Внимание количество ограничено!!!

2 сезон

iTunes

1 сезон

1

2 сезон

2 сезон

iTunes

1 сезон

RePack

30

Ultimate

ВАЖНО

ИГРА 18+

pack

RePack

MK11
pack

Забери бонус

RePack

jed

!!Акция!!

Alien_Rage

RePack

fifa19

RePack

Assassins Creed: Odyssey

RePack

NEED FOR SPEED™ PAYBACK

4 сезон

9 сезон

Бесстыжие 9 сезон

Все сериалы

все сериалы на PB.wtf

RePack

FAR CRY 5
  

Страна Рождества / NOS4A2 / Сезон: 1 / Серии: 1-10 из 10 (Джон Шибан, Кари Скогланд, Тим Соутэм) [2019, ужасы, WEB-DL 1080p] MVO [TVShows] pb.wtf

Страна Рождества через торрент pb.wtf

Размер: 32.8 GB | Добавлен: 1 год 5 мес. назад | Торрент скачан:31 раз
Скачать  

08-06-2019 05:41 Страна Рождества Скачать торрент  

Страна Рождества | NOS4A2 Год выпуска: 2019
Страна: США
Жанр: ужасы
Продолжительность: ~ 00:55:00
Перевод: Профессиональный (многоголосый закадровый) | TVShows
Субтитры: английские

Режиссёр
: Джон Шибан, Кари Скогланд, Тим Соутэм

В ролях:

Эшли Каммингс, Оулавюр Дарри Оулафссон, Эбон Мосс-Бакрак, Вирджиния Кулл, Закари Куинто, Далтон Хэррод, Крис МакКинни, Джейми Ньюманн, Дэрби Кэмп и др.

Описание: Юная Виктория МакКуин обнаруживает в себе уникальную способность открывать портал в мир потерянных вещей. Погружаясь все глубже в эту скрытую от людских глаз вселенную, она встречает множество других таких же «путешественников» — некоторые из них оказываются вполне благожелательными, а другие безнадежно испорчены своим даром. Однажды Виктория встречает Чарли Мэнкса: узнав, что он питается детскими душами и благодаря им остается бессмертным, героиня решает избавить мир от этого существа.

rating


Качество: WEB-DL 1080p
Формат: MKV

Видео: MPEG-4 AVC, 1920x1080 (16:9), 23.976 fps, 8861 Kbps, 0.141 bit/pixel
Аудио 1: 48 kHz, AC3, 3/2 (L,C,R,l,r) + LFE ch, ~384 kbps avg (Russian)
Аудио 2: 48 kHz, E-AC3, 3/2 (L,C,R,l,r) + LFE ch, ~640 kbps avg (English)
General
Unique ID : 302213971704817832718300869189260515333 (0xE35C4B34A1CA969AF5D78B7191339805)
Complete name : C:\Users\Desktop\NOS4A2.S01.1080p.TVShows\NOS4A2.S01E01.1080p.TVShows.mkv
Format : Matroska
Format version : Version 4 / Version 2
File size : 3.83 GiB
Duration : 55 min 31 s
Overall bit rate : 9 887 kb/s
Encoded date : UTC 2019-06-06 08:49:22
Writing application : mkvmerge v33.1.0 ('Primrose') 64-bit
Writing library : libebml v1.3.7 + libmatroska v1.5.0

Video
ID : 1
Format : AVC
Format/Info : Advanced Video Codec
Format profile : High@L4
Format settings : CABAC / 4 Ref Frames
Format settings, CABAC : Yes
Format settings, ReFrames : 4 frames
Codec ID : V_MPEG4/ISO/AVC
Duration : 55 min 31 s
Bit rate mode : Constant
Bit rate : 8 861 kb/s
Nominal bit rate : 10 000 kb/s
Width : 1 920 pixels
Height : 1 080 pixels
Display aspect ratio : 16:9
Frame rate mode : Constant
Frame rate : 23.976 (24000/1001) FPS
Color space : YUV
Chroma subsampling : 4:2:0
Bit depth : 8 bits
Scan type : Progressive
Bits/(Pixel*Frame) : 0.178
Stream size : 3.44 GiB (90%)
Default : Yes
Forced : No
Color range : Limited
Color primaries : BT.709
Transfer characteristics : BT.709
Matrix coefficients : BT.709

Audio #1
ID : 2
Format : AC-3
Format/Info : Audio Coding 3
Codec ID : A_AC3
Duration : 55 min 31 s
Bit rate mode : Constant
Bit rate : 384 kb/s
Channel(s) : 6 channels
Channel positions : Front: L C R, Side: L R, LFE
Sampling rate : 48.0 kHz
Frame rate : 31.250 FPS (1536 SPF)
Bit depth : 16 bits
Compression mode : Lossy
Stream size : 153 MiB (4%)
Title : TVShows
Language : Russian
Service kind : Complete Main
Default : Yes
Forced : Yes

Audio #2
ID : 3
Format : E-AC-3
Format/Info : Enhanced Audio Coding 3
Codec ID : A_EAC3
Duration : 55 min 31 s
Bit rate mode : Constant
Bit rate : 640 kb/s
Channel(s) : 6 channels
Channel positions : Front: L C R, Side: L R, LFE
Sampling rate : 48.0 kHz
Frame rate : 187.500 FPS (256 SPF)
Compression mode : Lossy
Stream size : 254 MiB (6%)
Title : Original
Language : English
Service kind : Complete Main
Default : No
Forced : No

Text
ID : 4
Format : UTF-8
Codec ID : S_TEXT/UTF8
Codec ID/Info : UTF-8 Plain Text
Duration : 53 min 39 s
Bit rate : 52 b/s
Count of elements : 676
Stream size : 20.7 KiB (0%)
Title : English
Language : English
Default : No
Forced : No
скриншот   скриншот   скриншот   скриншот   скриншот  
Внимание! Раздача ведётся путём добавления новых серий; при каждом добавлении создаётся новый торрент.
Чтобы начать докачку новой серии, пользователям необходимо сделать следующее:
1. Остановить скачивание.
2. Удалить старый торрент у себя из клиента (старые серии удалять не надо).
3. Скачать новый торрент и запустить его у себя в клиенте вместо старого, при этом указать клиенту путь в старую папку куда и должно происходить скачивание новых серий.
Ваш клиент при этом должен произвести хеширование (проверку) старой папки (если не производит сам - помогите ему сделать это), и будет докачивать только те серии которых у вас ещё нет. Старые серии при этом не удаляются, а продолжают раздаваться!
Eсли вы уже удалили старые серии, то предотвратить повторную закачку старых серий можно, отжав галочку в соответствующих местах при запуске нового торрента.
pb.wtf



Скачать Страна Рождества через торрент https://i110.fastpic.ru/big/2019/0605/36/8cf1d3b04a57d49864cd31cdb8c3d236.jpg Скачать фильм Страна Рождества через торрент бесплантно в хорошем качестве Описание: Юная Виктория МакКуин обнаруживает в себе уникальную способность открывать портал в мир потерянных вещей. Погружаясь все глубже в ... 10 10 4
Торрент: Зарегистрирован [2019-06-19 07:58] · скачан: 31 раз
Статус: √ проверено
Размер: 32.8 GB
Как cкачать? Как скачать Страна Рождества через торрент | qTorrent

% Раздел Тема Автор DL S | L
Зарубежные сериалы [ 30.37 GB ] Страна Рождества / NOS4A2 / Сезон: 2 / Серии: 1-10 из 10 [2020 WEB-DL 1080p] 3x [MVO] killermax2013 Скачать
1 | 0
Зарубежные сериалы [ 12.3 GB ] Страна Рождества / NOS4A2 / Сезон: 2 / Серии 1-10 из 10 [2020 WEB-DL 720p] [MVO] killermax2013 Скачать
1 | 0
Зарубежные сериалы [ 6.28 GB ] Страна Рождества / NOS4A2 / Сезон: 2 / Серии: 1-10 из 10 [2020 WEB-DLRip] MVO [LostFilm] bober100 Скачать
1 | 0
Зарубежные сериалы [ 1.8 GB ] Страна Рождества / NOS4A2 / Сезон: 2 / Серии: 1- из 10 [2020 WEBRip 1080p] MVO [LostFilm] bober100 Скачать
1 | 0
Зарубежные сериалы [ 18.36 GB ] Страна Рождества / NOS4A2 / Сезон: 2 / Серии: 1-10 из 10 [2020 WEB-DL 1080p] MVO [NewStudio] bober100 Скачать
1 | 0
Зарубежные сериалы [ 15.18 GB ] Страна Рождества / NOS4A2 / Сезон: 2 / Серии: 1-10 из 10 [2020 WEB-DL 720p] MVO [NewStudio] bober100 Скачать
1 | 0
Зарубежные сериалы [ 19.07 GB ] Страна Рождества / NOS4A2 / Сезон: 2 / Серии 1-10 из 10 [2020 WEBRip 1080p] [MVO] killermax2013 Скачать
1 | 0

28-11-2019 20:33  

Отключить всю рекламу на сайте

29-06-2019 16:22 Страна Рождества Скачать торрент  

сериал офигенный pb.wtf



    Дорогой пользователь! Огромная просьба, поблагодарите релизера, оцените раздачу и оставьте свои комментарий, если Вы скачали Страна Рождества через торрент бесплатно! Внесите свою лепту в развитие PiratBit!
    Комментировать посты могут только пользователи прошедшие не сложную регистрацию
    Показать сообщения:    

    Страна Рождества через торрент
    Скачать бесплатно Страна Рождества
    Страна Рождества скачать торрент
    Страна Рождества смотреть онлайн
    Cкачать фильм Страна Рождества бесплатно
    Страна Рождества скачать торрент в хорошем качестве
    Страна Рождества смотреть онлайн бесплатно в хорошем качестве


    Вы не можете начинать темы
    Вы не можете отвечать на сообщения
    Вы не можете редактировать свои сообщения
    Вы не можете удалять свои сообщения
    Вы не можете голосовать в опросах
    Вы не можете прикреплять файлы к сообщениям
    Вы можете скачивать файлы