новый адрес
Мега распродажа FORZA HORIZON 4 ULTIMATE+ВСЕ DLC+ОНЛАЙН всего за 499р. 349 руб. (супер цена). Внимание количество ограничено!!!

iTunes

1+1

iTunes

мы

iTunes

1

iTunes

Чернобыль

iTunes

Ральф против интернета

Лицензия

ПШазам

Лицензия

Игра престолов

Лицензия

30
pack

ВАЖНО

!!Акция!!

Alien_RageХит недели

RePack

Resident Evil 21

ИГРА 18+

pack

RePack

Metro:Exodus

!!Акция!!

Alien_Rage

RePack

fifa19

RePack

Assassins Creed: Odyssey

RePack

NEED FOR SPEED™ PAYBACK

3 сезон

9 сезон

Бесстыжие 9 сезон

Все сериалы

все сериалы на PB.wtf

RePack

FAR CRY 5
Ребята, катастрофически не хватает 1900р. для оплаты серверов за Октябрь (всвязи с блокировками трафик упал в 3 раза), 1-2р., выручайте.
  

Перекресток (Шакен Айманов) [1963, СССР, драма, SATRip от AVP Studio] pb.wtf

Перекресток через торрент pb.wtf

Раздают: 1 [ 0 KB/s ]
Размер: 1.09 GB | Добавлен: 5 мес. 9 д. назад | Торрент скачан:11 раз
Скачать  

08-06-2019 07:37 Перекресток Скачать торрент  

Перекресток
Страна: СССР
Производство: Казахфильм

Жанр: драма
Год выпуска: 1963
Продолжительность: 01:24:38

Перевод: Не требуется
Cубтитры: нет
Оригинальная аудиодорожка: русский

Режиссер: Шакен Айманов

В ролях:
Фарида Шарипова, Асанали Ашимов, Леонид Чубаров, Клавдия Хабарова, Владимир Сошальский, Л. Тастанова, Г. Эльвеин, Шахан Мусин, Евгений Диордиев, Петр Морозов, Шолпан Джандарбекова, Рахия Койчубаева, Юрий Померанцев, Сайфулла Тельгараев...
Об актёрах подробней

Описание:
Фильм рассказывает о враче «Скорой помощи» Галии Исмаиловой, её тревогах и радостях.

Исходник: DVB
Качество видео: SATRip
Формат видео: AVI

Видео: 704x464 (3:2), 29,970 кадров/сек, XviD ~ 1640 kbps avg, 0.168 bit/pixel
Аудио: 48 kHz, Dolby Digital AC3 2.0, 192 kbps

Раздача от:
Общее
Полное имя : Perekrestok.1963.SATRip_[New-team]_by_AVP_Studio.avi
Формат : AVI
Формат/Информация : Audio Video Interleave
Размер файла : 1,09 Гбайт
Продолжительность : 1 ч. 24 м.
Общий поток : 1844 Кбит/сек
Программа кодирования : VirtualDubMod 1.5.10.3 | www.virtualdub-fr.org || (build 2550/release)
Библиотека кодирования : VirtualDubMod build 2550/release

Видео
Идентификатор : 0
Формат : MPEG-4 Visual
Профиль формата : Advanced Simple@L5
Настройки формата : BVOP1 / Custom Matrix
Параметр BVOP формата : 1
Параметр QPel формата : Нет
Параметр GMC формата : Без точки перехода
Параметр матрицы формата : Выборочная
Идентификатор кодека : XVID
Идентификатор кодека/Подсказка : XviD
Продолжительность : 1 ч. 24 м.
Битрейт : 1640 Кбит/сек
Ширина : 704 пикселя
Высота : 464 пикселя
Соотношение сторон : 3:2
Частота кадров : 29,970 (30000/1001) кадров/сек
Цветовое пространство : YUV
Субдискретизация насыщенности : 4:2:0
Битовая глубина : 8 бит
Тип развёртки : Прогрессивная
Метод сжатия : С потерями
Бит/(Пиксели*Кадры) : 0.168
Размер потока : 993 Мбайт (89%)
Библиотека кодирования : XviD 73

Аудио
Идентификатор : 1
Формат : AC-3
Формат/Информация : Audio Coding 3
Коммерческое название : Dolby Digital
Идентификатор кодека : 2000
Продолжительность : 1 ч. 24 м.
Вид битрейта : Постоянный
Битрейт : 192 Кбит/сек
Каналы : 2 канала
ChannelLayout : L R
Частота : 48,0 КГц
Частота кадров : 31,250 кадров/сек (1536 SPF)
Битовая глубина : 16 бит
Метод сжатия : С потерями
Размер потока : 116 Мбайт (10%)
Выравнивание : Разделение по промежуткам
Продолжительность промежутка : 33 мс. (1,00 видеокадр)
Время предзагрузки промежутка : 500 мс
pb.wtf



Скачать Перекресток через торрент http://picplus.ru/img/1906/08/ec2f2112.png Скачать фильм Перекресток через торрент бесплантно в хорошем качестве Описание:Фильм рассказывает о враче «Скорой помощи» Галии Исмаиловой, её тревогах и радостях. Исходник: ... 5 10 1
Торрент: Зарегистрирован [2019-06-08 07:37] · скачан: 11 раз
Статус: √ проверено
Размер: 1.09 GB
Как cкачать? Как скачать Перекресток через торрент | qTorrent

% Раздел Тема Автор DL S | L
Кино СССР [ 1.09 GB ] Перекресток [1963 СССР SATRip-AVC от AVP Studio] AVP Studio Скачать
1 | 0
Фантастика [ 291 MB ] Константин Муравьёв - Живучий 5: Перекресток [Павел Дорофеев 2019 56 kbps MP3] bober100 Скачать
1 | 0
Фильмы до 2000 г. [ 1.47 GB ] Перекрёсток Миллера / Miller's Crossing [1990 BDRip ] Леонид Ильич Скачать
4 | 0
Наши сериалы [ 2.73 GB ] Перекресток / 1-4 серии из 4 [2017 Мело WEB-DLRip] bober100 Скачать
2 | 0
Наши сериалы [ 2.41 GB ] Перекресток / Серия 1-4 из 4 [2017 Мело SATRip] oleg8 Скачать
1 | 0
Фильмы 2013 (Звук TS, Cam, VO, DVO) [ 1.37 GB ] Перекресток / Intersections [2013 HDRip VO ] Ворон Скачать
1 | 0
Фильмы до 2000 г. [ 2 GB ] Перекресток Миллера / Miller's Crossing [1990 BDRip-AVC] [AVO] killermax2013 Скачать
1 | 0


>> Регистрируемся здесь <<






Отзывы и комментарии о схеме читаем и пишем здесь: ---> Отзывы и комментарии о схеме

Новые благодарочки в телеграм довольных пользователей:
скриншот   скриншот   скриншот   скриншот   скриншот
    Дорогой пользователь! Огромная просьба, поблагодарите релизера, оцените раздачу и оставьте свои комментарий, если Вы скачали Перекресток через торрент бесплатно! Внесите свою лепту в развитие PiratBit!
    Комментировать посты могут только пользователи прошедшие не сложную регистрацию
    Показать сообщения:    

    Перекресток через торрент
    Скачать бесплатно Перекресток
    Перекресток скачать торрент
    Перекресток смотреть онлайн
    Cкачать фильм Перекресток бесплатно
    Перекресток скачать торрент в хорошем качестве
    Перекресток смотреть онлайн бесплатно в хорошем качестве


    Вы не можете начинать темы
    Вы не можете отвечать на сообщения
    Вы не можете редактировать свои сообщения
    Вы не можете удалять свои сообщения
    Вы не можете голосовать в опросах
    Вы не можете прикреплять файлы к сообщениям
    Вы можете скачивать файлы