Мега распродажа FORZA HORIZON 4 ULTIMATE+ВСЕ DLC+ОНЛАЙН всего за 499р. 349 руб. (супер цена). Внимание количество ограничено!!!

Лицензия

30

iTunes

мы

iTunes

1

1 сезон

Чернобыль

1 сезон

Ральф против интернета

MVO

Покемон. Детектив Пикачу

8 сезон

Игра престолов

iTunes

1+1

ИГРА 18+

pack

ВАЖНО

!!Акция!!

Alien_RageХит недели

RePack

Resident Evil 21
pack

RePack

Metro:Exodus

!!Акция!!

Alien_Rage

RePack

fifa19

RePack

Assassins Creed: Odyssey

RePack

NEED FOR SPEED™ PAYBACK

3 сезон

9 сезон

Бесстыжие 9 сезон

Все сериалы

все сериалы на PB.wtf

RePack

FAR CRY 5
Ребята, катастрофически не хватает 2730р. для оплаты серверов за МАЙ (всвязи с блокировками трафик упал в 3 раза), 1-2р., выручайте.
  

Чёрное зеркало / Black Mirror / Сезон: 5 / Серии: 1-3 из 3 (Оуэн Харрис, Карл Тиббеттс, Отто Баферст) [2019, фантастика, триллер, драма, WEBRip 1080p] [DVO] (Кубик в Кубе) pb.wtf

Чёрное зеркало через торрент pb.wtf

Раздают: 3 [ 17 KB/s ] Качают: 1 [ 0 KB/s ]
Размер: 22.01 GB | Добавлен: 13 д. назад | Торрент скачан:22 раза
Скачать  

09-06-2019 03:08 Чёрное зеркало Скачать торрент  

Чёрное зеркало | Black Mirror
Год выпуска: 2019
Страна: Великобритания
Жанр: Фантастика, триллер, драма
Продолжительность: ~ 01:00:00
Перевод: Профессиональный (двухголосый закадровый) | Кубик в Кубе
Режиссёр: Оуэн Харрис, Карл Тиббеттс, Отто Баферст

В ролях: Энтони Маки, Яхья Абдул-Матин II, Николь Бехари, Пом Клементьефф, Луди Лин, Эндрю Скотт, Демсон Идрис, Тофер Грейс, Майли Сайрус, Ангури Райс, Мэдисон Дэвенпорт и др.
Описание: Фантастический британский телесериал перенесет зрителя в недалекое будущее, в котором человечество ждет небывалый технологический рост. Новые разработки уже успели полностью изменить наши жизни, плотно засев в окружающую действительность. Сейчас каждый имеет доступ к быстродействующим смартфонам, высококачественным телевизором, производительным компьютерам.
Мы все больше проводим время в соц сетях, предоставляя интернету все больше информации о собственной жизни и окружающих людях. Чужое мнение все больше давит на нас, заставляя следовать за обществом, которое порой может быть очень жестоким. Данный проект призван показать, что ждет людей в будущем и насколько наши жизни изменят современные технологии. Зачастую это оказывается мрачной картиной, в которой мы уже не можем контролировать себя, став марионеткой в руках хакеров, правительства, военных и корпораций. Теперь можно разрушить чью-то жизнь и разбить сердце лишь нажатием на клавиши, больше нет приватности и полной безопасности. Мы всецело отдаемся телевидению и интернету, но порой необходимо остановит этот бурно развивающийся процесс. Иначе произойдет то, что пытаются доказать зрителям создатели этого проекта.


Качество: WEBRip 1080p
Формат: MKV
Видео: AVC, 1920х960, ~15.2 Mbps, 25 fps
Аудио №1: AC3, 48,0 kHz, 6 ch, 640 kbps | Кубик в Кубе
Аудио №2: AC3, 48,0 kHz, 6 ch, 640 kbps | Original
Субтитры: Русские (Forced, Full |«Netflix»|), английские (SDH)

Реклама: Отсутствует
Исходник: Black.Mirror.S05.1080p.NF.WEBRip.DDP5.1.x264-NTb
Complete name : D:\Shows\Black_Mirror_(s05)_1080p\Black.Mirror.2019.S05E01.Striking.Vipers.1080p.NF.WEBRip.DD5.1.x264-NTb.mkv
Format : Matroska
Format version : Version 2
File size : 7.27 GiB
Duration : 1 h 1 min
Overall bit rate : 16.8 Mb/s
Encoded date : UTC 2019-06-08 22:28:39
Writing application : mkvmerge v4.9.1 ('Ich will') сборка от Jul 11 2011 23:53:15
Writing library : libebml v1.2.1 + libmatroska v1.1.1

Video
ID : 1
Format : AVC
Format/Info : Advanced Video Codec
Format profile : High@L4.1
Format settings : CABAC / 4 Ref Frames
Format settings, CABAC : Yes
Format settings, ReFrames : 4 frames
Codec ID : V_MPEG4/ISO/AVC
Duration : 1 h 1 min
Bit rate : 15.2 Mb/s
Width : 1 920 pixels
Height : 960 pixels
Display aspect ratio : 2.000
Frame rate mode : Constant
Frame rate : 25.000 FPS
Color space : YUV
Chroma subsampling : 4:2:0
Bit depth : 8 bits
Scan type : Progressive
Bits/(Pixel*Frame) : 0.330
Stream size : 6.57 GiB (90%)
Title : Release by EniaHD
Writing library : x264 core 152 r2851kMod ba24899
Encoding settings : cabac=1 / ref=4 / deblock=1:-3:-3 / analyse=0x3:0x133 / me=umh / subme=10 / psy=1 / fade_compensate=0.00 / psy_rd=1.00:0.00 / mixed_ref=1 / me_range=48 / chroma_me=1 / trellis=2 / 8x8dct=1 / cqm=0 / deadzone=21,11 / fast_pskip=0 / chroma_qp_offset=-2 / threads=12 / lookahead_threads=2 / sliced_threads=0 / nr=0 / decimate=0 / interlaced=0 / bluray_compat=0 / constrained_intra=0 / bframes=8 / b_pyramid=2 / b_adapt=2 / b_bias=0 / direct=3 / weightb=1 / open_gop=0 / weightp=2 / keyint=250 / keyint_min=25 / scenecut=40 / intra_refresh=0 / rc=crf / mbtree=0 / crf=17.0000 / qcomp=0.60 / qpmin=0 / qpmax=69 / qpstep=4 / ip_ratio=1.30 / pb_ratio=1.20 / aq=3:0.80
Language : English
Default : Yes
Forced : No

Audio #1
ID : 2
Format : AC-3
Format/Info : Audio Coding 3
Commercial name : Dolby Digital
Codec ID : A_AC3
Duration : 1 h 1 min
Bit rate mode : Constant
Bit rate : 640 kb/s
Channel(s) : 6 channels
Channel layout : L R C LFE Ls Rs
Sampling rate : 48.0 kHz
Frame rate : 31.250 FPS (1536 SPF)
Bit depth : 16 bits
Compression mode : Lossy
Stream size : 283 MiB (4%)
Title : Кубик в Кубе
Language : Russian
Service kind : Complete Main
Default : Yes
Forced : No

Audio #2
ID : 3
Format : AC-3
Format/Info : Audio Coding 3
Commercial name : Dolby Digital
Codec ID : A_AC3
Duration : 1 h 1 min
Bit rate mode : Constant
Bit rate : 640 kb/s
Channel(s) : 6 channels
Channel layout : L R C LFE Ls Rs
Sampling rate : 48.0 kHz
Frame rate : 31.250 FPS (1536 SPF)
Bit depth : 16 bits
Compression mode : Lossy
Stream size : 283 MiB (4%)
Language : English
Service kind : Complete Main
Default : No
Forced : No

Text #1
ID : 4
Format : UTF-8
Codec ID : S_TEXT/UTF8
Codec ID/Info : UTF-8 Plain Text
Title : Forced
Language : Russian
Default : Yes
Forced : No

Text #2
ID : 5
Format : UTF-8
Codec ID : S_TEXT/UTF8
Codec ID/Info : UTF-8 Plain Text
Title : Full |Netflix|
Language : Russian
Default : No
Forced : No

Text #3
ID : 6
Format : UTF-8
Codec ID : S_TEXT/UTF8
Codec ID/Info : UTF-8 Plain Text
Title : SDH
Language : English
Default : No
Forced : No

Menu
00:00:05.000 : en:Intro start
00:00:25.520 : en:Intro end
При каждом добавлении создаётся новый торрент. Чтобы начать докачку новой серии, пользователям необходимо сделать следующее:
- остановить скачивание;
- удалить старый торрент у себя из клиента (старые серии удалять не надо);
- скачать новый торрент и запустить его у себя в клиенте вместо старого, при этом указать клиенту путь в старую папку, куда и должно происходить скачивание новых серий.
скриншот  скриншот  скриншот  
pb.wtf



Скачать Чёрное зеркало через торрент http://i103.fastpic.ru/big/2018/0103/3f/790e56e26a22b884cbdc2d1062ac2e3f.png Скачать фильм Чёрное зеркало через торрент бесплантно в хорошем качестве Описание: Фантастический британский телесериал перенесет зрителя в недалекое будущее, в котором человечество ждет небывалый технологический ... 10 10 3
Торрент: Зарегистрирован [2019-06-13 04:45] · скачан: 22 раз
Статус: √ проверено
Размер: 22.01 GB
Как cкачать? Как скачать Чёрное зеркало через торрент | qTorrent

% Раздел Тема Автор DL S | L
Зарубежные сериалы [ 27.52 GB ] Черное зеркало / Black Mirror / Сезон: 5 / Серии: 1-3 из 3 [2019 UHD WEBRip 2160p] DVO [Кубик в кубе] sheker187 Скачать
3 | 5
Зарубежные сериалы [ 21.65 GB ] Чёрное зеркало / Black Mirror / Сезон: 5 / Серии: 1-3 из 3 [2019 WEBRip 1080p] MVO [LostFilm] bober100 Скачать
1 | 1
Зарубежные сериалы [ 3.87 GB ] Чёрное зеркало / Black Mirror / Сезон: 5 / Серии: 1-3 из 3 [2019 WEB-DLRip] MVO [TVShows] bober100 Скачать
7 | 0
Зарубежные сериалы [ 4.41 GB ] Чёрное зеркало / Black Mirror / Сезон: 5 / Серии: 1-3 из 3 [2019 WEBRip 720p] MVO [LostFilm] bober100 Скачать
11 | 1
Зарубежные сериалы [ 10.76 GB ] Черное зеркало / Black Mirror / Сезон: 5 / Серии: 1-3 из 3 [2019 WEB-DL 720p] DVO [Кубик в кубе] bober100 Скачать
8 | 1
Зарубежные сериалы [ 5.16 GB ] Черное зеркало / Black Mirror / Сезон: 5 / Серии: 1-3 из 3 [2019 WEB-DL 720p] MVO [AMS] bober100 Скачать
1 | 0
Зарубежные сериалы [ 5.16 GB ] Чёрное зеркало / Black Mirror / Сезон: 5 / Серии: 1-3 из 3 [2019 WEB-DL 720p] DUB [Пифагор] bober100 Скачать
11 | 0


>> Регистрируемся здесь <<






Отзывы и комментарии о схеме читаем и пишем здесь: ---> Отзывы и комментарии о схеме

Новые благодарочки в телеграм довольных пользователей:
скриншот   скриншот   скриншот   скриншот   скриншот
    Дорогой пользователь! Огромная просьба, поблагодарите релизера, оцените раздачу и оставьте свои комментарий, если Вы скачали Чёрное зеркало через торрент бесплатно! Внесите свою лепту в развитие PiratBit!
    Комментировать посты могут только пользователи прошедшие не сложную регистрацию
    Показать сообщения:    

    Чёрное зеркало через торрент
    Скачать бесплатно Чёрное зеркало
    Чёрное зеркало скачать торрент
    Чёрное зеркало смотреть онлайн
    Cкачать фильм Чёрное зеркало бесплатно
    Чёрное зеркало скачать торрент в хорошем качестве
    Чёрное зеркало смотреть онлайн бесплатно в хорошем качестве


    Вы не можете начинать темы
    Вы не можете отвечать на сообщения
    Вы не можете редактировать свои сообщения
    Вы не можете удалять свои сообщения
    Вы не можете голосовать в опросах
    Вы не можете прикреплять файлы к сообщениям
    Вы можете скачивать файлы