Всегда рабочее зеркало без VPN и Proxy просто перед .vidak.icu напиши любое слово или цифру, Пример http://gmt0.vidak.icu

MVO

2 сезон

2 сезон

1

1 сезон

iTunes

2 сезон

13

1 сезон

Распродажа

pack

Рекомендуем

Пиратка

30

ВАЖНО

RePack

MK11

RePack

jed

RePack

fifa19

RePack

RDR2

RePack

NEED FOR SPEED™ PAYBACK

Кинопоиск HD

6 сезон

 Острые козырьки 6 сезон

Все сериалы

все сериалы на PB.wtf

RePack

FAR CRY 5

Anonymous, нам критически не хватает 5601 руб. на оплату серверов и переферии за Апрель, помоги нам пожалуйста, вся надежда только на тебя. В благодарность мы отключим тебе всю рекламу на сайте!

×
  
Magnet ссылка

Форсаж 5 / Fast Five (Джастин Лин) [2011, боевик, триллер, драма, криминал, UHD BDRemux 2160p] DUB [Лицензия] + 2xAVO [Расширенная версия] pb.wtf

Форсаж 5 через торрент pb.wtf

Размер: 56.14 GB | Добавлен: 2 года 11 мес. назад | Торрент скачан:55 раз
Смотреть онлайн Форсаж 5 | Скачать    Ребята, помогите собрать деньги на оплату серверов!!!

09-06-2019 03:11 Форсаж 5 Скачать торрент  

Форсаж 5 / Fast Five««Всё решает скорость, всё решает команда»»

Год выпуска: 2011
Страна: США
Жанр: боевик, триллер, драма, криминал
Продолжительность: 02:11:33
Перевод: Дублированный, авторский
Субтитры: Русские (Форсированные, полные), Английские (Полные)
Режиссер: Джастин Лин
В ролях:

Вин Дизель (Dominic Toretto), Пол Уокер (Brian O'Conner), Джордана Брюстер (Mia), Дуэйн Джонсон (Hobbs), Тайриз Гибсон (Roman), Лудакрис (Tej), Мэтт Шульце (Vince), Сон Ган (Han), Галь Гадот (Gisele), Эльза Патаки (Elena), Тего Кальдерон (Leo), Дон Омар (Santos)
Описание:
Бывший полицейский Брайан О`Коннер вместе с бывалым лихачом Домиником Торетто совсем немного увлеклись жизнью вне закона. После того, как Брайан и Миа Торетто освободили Доминика, они не рискуют долго задерживаться на одном месте, так как являются желанной целью порядком недовольных копов.
Рейтинг:

MPAA: PG-13 - Детям до 13 лет просмотр не желателен
Качество: UHD BDRemux 2160p | Расширенная версия
Формат: MKV
Видео: HEVC, 48.8 Мбит/с, 3840x2160, 23.976 Кадр/с, 10 бит
Аудио №1: Russian / DTS / 5.1 / 48 kHz / 755 kbps Дубляж
Аудио №2: Russian / DTS-HD Master Audio / 5.1 / 48 kHz / 3701 kbps Гаврилов
Аудио №3: Russian / DTS-HD Master Audio / 5.1 / 48 kHz / 3696 kbps Володарский
Аудио №4: English / DTS-HD Master Audio / 7.1 / 48 kHz / 4119 kbps
Навигация по главам: есть

На дублированной дорожке есть несколько мест без перевода.
Unique ID : 9750552689058228062903616364466059576 (0x755E35D2191C19B3DDB2FC173F2B938)
Complete name : X:\Releases\Fast.Five.2011.Extended.BDRemux.HEVC.HDR.2160p.mkv
Format : Matroska
Format version : Version 4
File size : 56.1 GiB
Duration : 2 h 11 min
Overall bit rate mode : Variable
Overall bit rate : 61.1 Mb/s
Encoded date : UTC 2019-06-03 16:54:59
Writing application : mkvmerge v34.0.0 ('Sight and Seen') 64-bit
Writing library : libebml v1.3.7 + libmatroska v1.5.0
Attachments : poster.jpg

Video
ID : 1
Format : HEVC
Format/Info : High Efficiency Video Coding
Format profile : Main 10@L5.1@High
HDR format : SMPTE ST 2086, HDR10 compatible
Codec ID : V_MPEGH/ISO/HEVC
Duration : 2 h 11 min
Bit rate : 48.8 Mb/s
Width : 3 840 pixels
Height : 2 160 pixels
Display aspect ratio : 16:9
Frame rate mode : Constant
Frame rate : 23.976 (24000/1001) FPS
Color space : YUV
Chroma subsampling : 4:2:0 (Type 2)
Bit depth : 10 bits
Bits/(Pixel*Frame) : 0.245
Stream size : 44.8 GiB (80%)
Writing library : ATEME Titan File 3.9.0 (4.9.0.0)
Default : Yes
Forced : No
Color range : Limited
Color primaries : BT.2020
Transfer characteristics : PQ
Matrix coefficients : BT.2020 non-constant
Mastering display color pri : Display P3
Mastering display luminance : min: 0.0050 cd/m2, max: 1000 cd/m2
Maximum Content Light Level : 997 cd/m2
Maximum Frame-Average Light : 344 cd/m2

Audio #1
ID : 2
Format : DTS
Format/Info : Digital Theater Systems
Codec ID : A_DTS
Duration : 2 h 11 min
Bit rate mode : Constant
Bit rate : 755 kb/s
Channel(s) : 6 channels
Channel layout : C L R Ls Rs LFE
Sampling rate : 48.0 kHz
Frame rate : 93.750 FPS (512 SPF)
Bit depth : 24 bits
Compression mode : Lossy
Stream size : 710 MiB (1%)
Title : Дубляж
Language : Russian
Default : Yes
Forced : No

Audio #2
ID : 3
Format : DTS XLL
Format/Info : Digital Theater Systems
Commercial name : DTS-HD Master Audio
Codec ID : A_DTS
Duration : 2 h 11 min
Bit rate mode : Variable
Bit rate : 3 701 kb/s
Channel(s) : 6 channels
Channel layout : C L R Ls Rs LFE
Sampling rate : 48.0 kHz
Frame rate : 93.750 FPS (512 SPF)
Bit depth : 24 bits
Compression mode : Lossless
Stream size : 3.40 GiB (6%)
Title : Гаврилов
Language : Russian
Default : No
Forced : No

Audio #3
ID : 4
Format : DTS XLL
Format/Info : Digital Theater Systems
Commercial name : DTS-HD Master Audio
Codec ID : A_DTS
Duration : 2 h 11 min
Bit rate mode : Variable
Bit rate : 3 696 kb/s
Channel(s) : 6 channels
Channel layout : C L R Ls Rs LFE
Sampling rate : 48.0 kHz
Frame rate : 93.750 FPS (512 SPF)
Bit depth : 24 bits
Compression mode : Lossless
Stream size : 3.40 GiB (6%)
Title : Володарский
Language : Russian
Default : No
Forced : No

Audio #4
ID : 5
Format : DTS XLL X
Format/Info : Digital Theater Systems
Commercial name : DTS-HD Master Audio
Codec ID : A_DTS
Duration : 2 h 11 min
Bit rate mode : Variable
Bit rate : 4 119 kb/s
Channel(s) : 8 channels
Channel(s)_Original : Object Based
ChannelLayout_Original : Object Based
Sampling rate : 48.0 kHz
Frame rate : 93.750 FPS (512 SPF)
Bit depth : 24 bits
Stream size : 3.79 GiB (7%)
Title : Original
Language : English
Default : No
Forced : No

Text #1
ID : 6
Format : UTF-8
Codec ID : S_TEXT/UTF8
Codec ID/Info : UTF-8 Plain Text
Duration : 1 h 31 min
Bit rate : 2 b/s
Count of elements : 30
Stream size : 1.51 KiB (0%)
Title : Форсированные
Language : Russian
Default : Yes
Forced : No

Text #2
ID : 7
Format : UTF-8
Codec ID : S_TEXT/UTF8
Codec ID/Info : UTF-8 Plain Text
Duration : 2 h 4 min
Bit rate : 61 b/s
Count of elements : 1290
Stream size : 56.0 KiB (0%)
Title : Полные
Language : Russian
Default : No
Forced : No

Text #3
ID : 8
Format : UTF-8
Codec ID : S_TEXT/UTF8
Codec ID/Info : UTF-8 Plain Text
Duration : 2 h 4 min
Bit rate : 41 b/s
Count of elements : 1272
Stream size : 38.1 KiB (0%)
Language : English
Default : No
Forced : No

Menu
00:00:00.000 : en:Chapter 01
00:07:45.673 : en:Chapter 02
00:17:29.423 : en:Chapter 03
00:23:01.797 : en:Chapter 04
00:28:21.533 : en:Chapter 05
00:35:05.144 : en:Chapter 06
00:40:55.661 : en:Chapter 07
00:48:51.261 : en:Chapter 08
00:55:29.993 : en:Chapter 09
01:04:07.552 : en:Chapter 10
01:11:41.964 : en:Chapter 11
01:19:23.467 : en:Chapter 12
01:23:33.800 : en:Chapter 13
01:28:56.331 : en:Chapter 14
01:32:57.154 : en:Chapter 15
01:40:27.104 : en:Chapter 16
01:48:14.488 : en:Chapter 17
01:56:03.915 : en:Chapter 18
02:00:29.013 : en:Chapter 19
02:04:38.179 : en:Chapter 20
pb.wtf



Скачать Форсаж 5 через торрент https://b.radikal.ru/b22/1906/f7/173fe9e1abfa.png Скачать, смотреть онлайн Форсаж 5 бесплантно в хорошем качестве Описание: Бывший полицейский Брайан О`Коннер вместе с бывалым лихачом Домиником Торетто совсем немного увлеклись жизнью вне закона. После ... 10 10 5
Торрент: Зарегистрирован [2019-06-09 03:11] · скачан: 55 раз
Статус: √ проверено
Размер: 56.14 GB
Как cкачать? Как скачать Форсаж 5 через торрент | UTorrent

% Раздел Тема Автор DL S | L
Ultra HD (UHD: 2K, 4K, 8K) — видео сверхвысокой чёткости [ 56.53 GB ] Форсаж 5 / Fast Five [2011 UHD Blu-Ray EUR 2160p] DUB [] bober100 Скачать
1 | 0
Ultra HD (UHD: 2K, 4K, 8K) — видео сверхвысокой чёткости [ 52.45 GB ] Форсаж 5 / Fast Five [2011 UHD BDRemux 2160p] [Театральная версия] DUB [ BD EUR] +AVO [А. Киреев] bober100 Скачать
1 | 0
Фильмы [HD 720p, 1080p] (Хороший звук DUB, MVO) [ 5.44 GB ] Форсаж 5 / Fast Five [2011 BDRip 1080p HEVC ] Мичман37 Скачать
1 | 0
Фильмы [HD 720p, 1080p] (Хороший звук DUB, MVO) [ 4.85 GB ] Форсаж 5 / Fast Five [2011 BDRip 720p от Leonardo / Extended Cut / ] Ворон Скачать
1 | 0
Фильмы [HD 720p, 1080p] (Хороший звук DUB, MVO) [ 7.76 GB ] Форсаж 5 / Fast Five [2011 BDRip 1080p + Оригинал] Бумер Скачать
1 | 0
Фильмы 2011 [ 1.45 GB ] Форсаж 5 / Fast Five [2011 HDTVRip] killermax2013 Скачать
1 | 0
Фильмы с авторской озвучкой [ 2.24 GB ] Форсаж 5 / Fast Five [2011 BDRip] [EXTENDED] [AVO] killermax2013 Скачать
1 | 0

28-11-2019 20:33  

Отключить всю рекламу на сайте

    Дорогой пользователь! Огромная просьба, поблагодарите релизера, оцените раздачу и оставьте свои комментарий, если Вы скачали Форсаж 5 через торрент бесплатно!
    Комментировать посты могут только пользователи прошедшие не сложную регистрацию
    Показать сообщения:    

    Форсаж 5 через торрент
    Скачать бесплатно Форсаж 5
    Форсаж 5 скачать торрент
    Форсаж 5 смотреть онлайн
    Cкачать фильм Форсаж 5 бесплатно
    Форсаж 5 скачать торрент в хорошем качестве
    Форсаж 5 смотреть онлайн бесплатно в хорошем качестве


    Вы не можете начинать темы
    Вы не можете отвечать на сообщения
    Вы не можете редактировать свои сообщения
    Вы не можете удалять свои сообщения
    Вы не можете голосовать в опросах
    Вы не можете прикреплять файлы к сообщениям
    Вы можете скачивать файлы