Ссылка на приватное зеркало нашего сайта всего за 1$. Внимание количество ограничено!!!

2 сезон

iTunes

1 сезон

1

2 сезон

2 сезон

iTunes

1 сезон

RePack

30

Ultimate

ВАЖНО

ИГРА 18+

pack

RePack

MK11
pack

Забери бонус

RePack

jed

!!Акция!!

Alien_Rage

RePack

fifa19

RePack

Assassins Creed: Odyssey

RePack

NEED FOR SPEED™ PAYBACK

4 сезон

9 сезон

Бесстыжие 9 сезон

Все сериалы

все сериалы на PB.wtf

RePack

FAR CRY 5
  

Черное зеркало / Black Mirror / Сезон: 5 / Серии: 1-3 из 3 (Оуэн Харрис, Карл Тиббеттс, Джеймс Хоуз) [2019, фантастика, триллер, драма, WEB-DL 720p] MVO [AMS] pb.wtf

Черное зеркало через торрент pb.wtf

Размер: 5.16 GB | Добавлен: 1 год 5 мес. назад | Торрент скачан:21 раз
Скачать  

09-06-2019 03:14 Черное зеркало Скачать торрент  

Черное зеркало / Black MirrorГод выпуска: 2019
Страна: Великобритания
Жанр: Фантастика, триллер, драма
Продолжительность: ~ 01:10:00
Перевод: Профессиональный (многоголосый закадровый) | AMS
Субтитры: Русские, английские (Softsub SRT)

Режиссёр: Оуэн Харрис, Карл Тиббеттс, Джеймс Хоуз

В ролях:

Рори Киннер, Дэниэл Калуя, Тоби Кеббелл, Хейли Этвелл, Брайс Даллас Ховард, Уайатт Рассел, Келли Макдоналд, Гугу Эмбата-Ро, Маккензи Дэвис, Джесси Племонс и другие

Описание:

За последние десять лет технологии всесторонне изменили нашу жизнь, прежде чем мы успели опомниться и усомниться в них. В каждом доме, на каждом столе, на каждой ладони — плазменный телевизор, монитор компьютера, дисплей смартфона — черное зеркало нашего существования в двадцать первом веке. Наша связь с реальностью меняется. Мы возложили на алтарь Google и Apple и поклоняемся им. Facebook-алгоритмы знают о нас больше, чем наши собственные родители. У нас есть доступ ко всей информации в мире, но в голове хватает места лишь для того, чтобы воспринять 140 символов из сообщения в Twitter. В «Чёрном зеркале» отображается всеобщее беспокойство за наш современный мир.

rating

Качество: WEB-DL 720p
Контейнер: MKV

Видео: AVC, 1280x720 (16:9), 25 fps, ~ 3480-5220 кбит/с (переменный), 0.151-0.220 bit/pixel
Аудио 1: Русский, AC3, 48 KHz, 6 channels, 640 kbps
Аудио 2: Английский, AC3, 48 KHz, 6 channels, 640 kbps


Реклама: Присутствует звуковая (два раза: в начале и конце по 10 сек)
General
Unique ID : 2821565653617761228000913359647879253 (0x21F69ED5ED61FA6D7AFD72C0D0D3055)
Complete name : /Black.Mirror.S05E01.720p.WEB-DL.AMS.mkv
Format : Matroska
Format version : Version 4 / Version 2
File size : 2.02 GiB
Duration : 1h 1mn
Overall bit rate mode : Variable
Overall bit rate : 4 684 Kbps
Movie name : Black Mirror 5x01 - MVO AMS
Encoded date : UTC 2019-06-07 18:16:00
Writing application : mkvmerge v8.2.0 ('World of Adventure') 64bit
Writing library : libebml v1.3.1 + libmatroska v1.4.2

Video
ID : 1
Format : AVC
Format/Info : Advanced Video Codec
Format profile : Main@L3.1
Format settings, CABAC : Yes
Format settings, ReFrames : 3 frames
Codec ID : V_MPEG4/ISO/AVC
Duration : 1h 1mn
Bit rate mode : Variable
Bit rate : 3 480 Kbps
Maximum bit rate : 5 220 Kbps
Width : 1 280 pixels
Height : 720 pixels
Display aspect ratio : 16:9
Frame rate mode : Constant
Frame rate : 25.000 fps
Color space : YUV
Chroma subsampling : 4:2:0
Bit depth : 8 bits
Scan type : Progressive
Bits/(Pixel*Frame) : 0.151
Stream size : 1.47 GiB (73%)
Title : Black Mirror 5x01 - MVO AMS
Writing library : x264 core 148 r2715 7e75228
Encoding settings : cabac=1 / ref=3 / deblock=1:0:0 / analyse=0x1:0x111 / me=umh / subme=10 / psy=1 / psy_rd=1.00:0.00 / mixed_ref=1 / me_range=24 / chroma_me=1 / trellis=2 / 8x8dct=0 / cqm=0 / deadzone=21,11 / fast_pskip=1 / chroma_qp_offset=-2 / threads=8 / lookahead_threads=1 / sliced_threads=0 / nr=0 / decimate=1 / interlaced=0 / bluray_compat=0 / stitchable=1 / constrained_intra=0 / bframes=2 / b_pyramid=0 / b_adapt=2 / b_bias=0 / direct=3 / weightb=1 / open_gop=0 / weightp=2 / keyint=50 / keyint_min=26 / scenecut=0 / intra_refresh=0 / rc_lookahead=50 / rc=2pass / mbtree=1 / bitrate=3480 / ratetol=1.0 / qcomp=0.50 / qpmin=6 / qpmax=51 / qpstep=4 / cplxblur=20.0 / qblur=0.5 / vbv_maxrate=5220 / vbv_bufsize=6960 / nal_hrd=vbr / filler=0 / ip_ratio=1.40 / aq=1:1.00
Default : Yes
Forced : No

Audio #1
ID : 2
Format : AC-3
Format/Info : Audio Coding 3
Mode extension : CM (complete main)
Format settings, Endianness : Big
Codec ID : A_AC3
Duration : 1h 1mn
Bit rate mode : Constant
Bit rate : 640 Kbps
Channel(s) : 6 channels
Channel positions : Front: L C R, Side: L R, LFE
Sampling rate : 48.0 KHz
Frame rate : 31.250 fps (1536 spf)
Compression mode : Lossy
Stream size : 283 MiB (14%)
Title : MVO AMS
Language : Russian
Default : Yes
Forced : No

Audio #2
ID : 3
Format : E-AC-3
Format/Info : Audio Coding 3
Format settings, Endianness : Big
Codec ID : A_EAC3
Duration : 1h 1mn
Bit rate mode : Constant
Bit rate : 640 Kbps
Channel(s) : 6 channels
Channel positions : Front: L C R, Side: L R, LFE
Sampling rate : 48.0 KHz
Frame rate : 187.500 fps (256 spf)
Compression mode : Lossy
Stream size : 283 MiB (14%)
Title : Original
Language : English
Default : No
Forced : No

Text #1
ID : 4
Format : UTF-8
Codec ID : S_TEXT/UTF8
Codec ID/Info : UTF-8 Plain Text
Duration : 59mn 31s
Bit rate : 61 bps
Count of elements : 710
Stream size : 26.8 KiB (0%)
Title : Rus-Subs
Language : Russian
Default : No
Forced : No

Text #2
ID : 5
Format : UTF-8
Codec ID : S_TEXT/UTF8
Codec ID/Info : UTF-8 Plain Text
Duration : 59mn 52s
Bit rate : 42 bps
Count of elements : 672
Stream size : 18.8 KiB (0%)
Title : Eng-Subs
Language : English
Default : No
Forced : No

Text #3
ID : 6
Format : UTF-8
Codec ID : S_TEXT/UTF8
Codec ID/Info : UTF-8 Plain Text
Duration : 1h 0mn
Bit rate : 46 bps
Count of elements : 742
Stream size : 20.5 KiB (0%)
Title : Eng-Subs (SDH)
Language : English
Default : No
Forced : No

Menu
00:00:05.000 : en:Intro start
00:00:25.520 : en:Intro end
pb.wtf



Скачать Черное зеркало через торрент https://d.radikal.ru/d23/1906/75/a2914c3cc4e1.jpg Скачать фильм Черное зеркало через торрент бесплантно в хорошем качестве Описание:За последние десять лет технологии всесторонне изменили нашу жизнь, прежде чем мы успели опомниться и усомниться в них. В каждом ... 10 10 2
Торрент: Зарегистрирован [2019-06-09 03:14] · скачан: 21 раз
Статус: √ проверено
Размер: 5.16 GB
Как cкачать? Как скачать Черное зеркало через торрент | qTorrent

% Раздел Тема Автор DL S | L
Зарубежные сериалы [ 76.54 GB ] Черное зеркало / Black Mirror / Сезон: 5 / Серии: 1-3 из 3 [2019 UHD WEBRip 2160p] [SDR] DVO [Кубик в кубе] sheker187 Скачать
1 | 0
Зарубежные сериалы [ 27.52 GB ] Черное зеркало / Black Mirror / Сезон: 5 / Серии: 1-3 из 3 [2019 UHD WEBRip 2160p] DVO [Кубик в кубе] sheker187 Скачать
1 | 0
Зарубежные сериалы [ 21.65 GB ] Чёрное зеркало / Black Mirror / Сезон: 5 / Серии: 1-3 из 3 [2019 WEBRip 1080p] MVO [LostFilm] bober100 Скачать
1 | 0
Зарубежные сериалы [ 3.87 GB ] Чёрное зеркало / Black Mirror / Сезон: 5 / Серии: 1-3 из 3 [2019 WEB-DLRip] MVO [TVShows] bober100 Скачать
1 | 0
Зарубежные сериалы [ 4.41 GB ] Чёрное зеркало / Black Mirror / Сезон: 5 / Серии: 1-3 из 3 [2019 WEBRip 720p] MVO [LostFilm] bober100 Скачать
1 | 0
Зарубежные сериалы [ 10.76 GB ] Черное зеркало / Black Mirror / Сезон: 5 / Серии: 1-3 из 3 [2019 WEB-DL 720p] DVO [Кубик в кубе] bober100 Скачать
1 | 0
Зарубежные сериалы [ 22.01 GB ] Чёрное зеркало / Black Mirror / Сезон: 5 / Серии: 1-3 из 3 [2019 WEBRip 1080p] [DVO] killermax2013 Скачать
1 | 0

28-11-2019 20:33  

Отключить всю рекламу на сайте

    Дорогой пользователь! Огромная просьба, поблагодарите релизера, оцените раздачу и оставьте свои комментарий, если Вы скачали Черное зеркало через торрент бесплатно! Внесите свою лепту в развитие PiratBit!
    Комментировать посты могут только пользователи прошедшие не сложную регистрацию
    Показать сообщения:    

    Черное зеркало через торрент
    Скачать бесплатно Черное зеркало
    Черное зеркало скачать торрент
    Черное зеркало смотреть онлайн
    Cкачать фильм Черное зеркало бесплатно
    Черное зеркало скачать торрент в хорошем качестве
    Черное зеркало смотреть онлайн бесплатно в хорошем качестве


    Вы не можете начинать темы
    Вы не можете отвечать на сообщения
    Вы не можете редактировать свои сообщения
    Вы не можете удалять свои сообщения
    Вы не можете голосовать в опросах
    Вы не можете прикреплять файлы к сообщениям
    Вы можете скачивать файлы