Ссылка на приватное зеркало нашего сайта всего за 1$. Внимание количество ограничено!!!

2 сезон

iTunes

1 сезон

1

2 сезон

2 сезон

iTunes

1 сезон

RePack

30

Ultimate

ВАЖНО

ИГРА 18+

pack

RePack

MK11
pack

Забери бонус

RePack

jed

!!Акция!!

Alien_Rage

RePack

fifa19

RePack

Assassins Creed: Odyssey

RePack

NEED FOR SPEED™ PAYBACK

4 сезон

9 сезон

Бесстыжие 9 сезон

Все сериалы

все сериалы на PB.wtf

RePack

FAR CRY 5
  

Американская принцесса / American Princess / Сезон: 1 / Серии: 1-10 из 10 (Марк А. Берли, Клер Скэнлон, Аня Адамс) [2019, Драма, WEBRip 1080p] [MVO] (TUMBLER Studio) pb.wtf

Американская принцесса через торрент pb.wtf

Размер: 20.6 GB | Добавлен: 1 год 4 мес. назад | Торрент скачан:3 раза
Скачать  

09-06-2019 03:57 Американская принцесса Скачать торрент  

Американская принцесса / American Princess
Год выпуска: 2019
Страна: США
Жанр: Драма
Продолжительность: 0:43:00
Перевод: Профессиональный (многоголосый закадровый) TUMBLER Studio
Субтитры: Отсутствуют

Режиссёр: Марк А. Берли, Клер Скэнлон, Аня Адамс

В ролях: Джорджия Флуд, Дель Браун, Мэри Холлис Инбоден, Шона Кофоед, Лукас Нефф, Рори О Мэлли, Эрин Пинеда, Лесли Энн Уоррен, Христофер Бланчард, Тайлер Гхейзел

Описание: Аманду бросает жених у алтаря, и её жизнь переворачивается с ног на голову. Так девушка оказывается в окружении странных людей, которые носят средневековую одежду. Именно на ярмарке эпохи Возрождения, окружённая причудливым изгоями общества, она поймёт, чего ей не хватало в жизни.

rating скриншот  

Качество: WEBRip 1080p
Контейнер: MKV
Видео: MPEG-4 AVC, 1920x1080, 23.976 fps, ~ 6250 Kbps
Аудио: Русский (AC3, 2 ch, 192 Кбит/с)
Аудио 2: английский (AAC, 2 ch, 125-193 Кбит/с)
General
Unique ID : 207939796100362831978820359039027531850 (0x9C6FBF7C8801CD7FA459BFA384EC504A)
Complete name : G:\kinozal\American.Princess.S01.1080p.WEBRip.TUMBLER.Studio\American.Princess.S01E01.1080p.WEBRip.TUMBLER.Studio.mkv
Format : Matroska
Format version : Version 4
File size : 1.97 GiB
Duration : 42 min 21 s
Overall bit rate : 6 674 kb/s
Encoded date : UTC 2019-06-03 20:31:07
Writing application : mkvmerge v8.3.0 ('Over the Horizon') 64bit
Writing library : libebml v1.3.1 + libmatroska v1.4.2

Video
ID : 1
Format : AVC
Format/Info : Advanced Video Codec
Format profile : High@L3.1
Format settings : CABAC / 4 Ref Frames
Format settings, CABAC : Yes
Format settings, ReFrames : 4 frames
Codec ID : V_MPEG4/ISO/AVC
Duration : 42 min 21 s
Bit rate : 6 354 kb/s
Width : 1 920 pixels
Height : 1 080 pixels
Display aspect ratio : 16:9
Frame rate mode : Constant
Frame rate : 23.976 FPS
Color space : YUV
Chroma subsampling : 4:2:0
Bit depth : 8 bits
Scan type : Progressive
Bits/(Pixel*Frame) : 0.128
Stream size : 1.88 GiB (95%)
Writing library : x264 core 146 r2538 121396c
Encoding settings : cabac=1 / ref=1 / deblock=1:0:0 / analyse=0x3:0x113 / me=hex / subme=2 / psy=1 / psy_rd=1.00:0.00 / mixed_ref=0 / me_range=16 / chroma_me=1 / trellis=0 / 8x8dct=1 / cqm=0 / deadzone=21,11 / fast_pskip=1 / chroma_qp_offset=0 / threads=12 / lookahead_threads=4 / sliced_threads=0 / nr=0 / decimate=1 / interlaced=0 / bluray_compat=0 / constrained_intra=0 / bframes=3 / b_pyramid=2 / b_adapt=1 / b_bias=0 / direct=1 / weightb=1 / open_gop=0 / weightp=1 / keyint=250 / keyint_min=23 / scenecut=40 / intra_refresh=0 / rc_lookahead=10 / rc=crf / mbtree=1 / crf=18.0 / qcomp=0.60 / qpmin=0 / qpmax=69 / qpstep=4 / ip_ratio=1.40 / aq=1:1.00
Language : English
Default : Yes
Forced : No

Audio #1
ID : 2
Format : AC-3
Format/Info : Audio Coding 3
Commercial name : Dolby Digital
Codec ID : A_AC3
Duration : 42 min 21 s
Bit rate mode : Constant
Bit rate : 192 kb/s
Channel(s) : 2 channels
Channel layout : L R
Sampling rate : 48.0 kHz
Frame rate : 31.250 FPS (1536 SPF)
Bit depth : 16 bits
Compression mode : Lossy
Stream size : 58.2 MiB (3%)
Language : Russian
Service kind : Complete Main
Default : Yes
Forced : No

Audio #2
ID : 3
Format : AAC LC
Format/Info : Advanced Audio Codec Low Complexity
Codec ID : A_AAC-2
Duration : 42 min 21 s
Bit rate : 125 kb/s
Channel(s) : 2 channels
Channel layout : L R
Sampling rate : 48.0 kHz
Frame rate : 46.875 FPS (1024 SPF)
Compression mode : Lossy
Stream size : 37.8 MiB (2%)
Language : English
Default : No
Forced : No
скриншот  скриншот  скриншот  
При каждом добавлении создаётся новый торрент. Чтобы начать докачку новой серии, пользователям необходимо сделать следующее:
- остановить скачивание;
- удалить старый торрент у себя из клиента (старые серии удалять не надо);
- скачать новый торрент и запустить его у себя в клиенте вместо старого, при этом указать клиенту путь в старую папку, куда и должно происходить скачивание новых серий.
pb.wtf



Скачать Американская принцесса через торрент https://i106.fastpic.ru/big/2019/0603/33/122be84b27dd8c1c44e9cd7749fca333.jpg Скачать фильм Американская принцесса через торрент бесплантно в хорошем качестве Описание: Аманду бросает жених у алтаря, и её жизнь переворачивается с ног на голову. Так девушка оказывается в окружении странных людей, ... 5 10 1
Info! Серебряная раздача, засчитывается только 50% скачанного.
Торрент: Зарегистрирован [2019-07-10 20:48] · скачан: 3 раз
Статус: √ проверено
Размер: 20.6 GB
Как cкачать? Как скачать Американская принцесса через торрент | qTorrent

% Раздел Тема Автор DL S | L
Зарубежные сериалы [ 29.7 GB ] Американская принцесса / American Princess / Сезон: 1 / Серии: 1-10 из 10 [2019 WEBRip 1080p] MVO [TVShows] bober100 Скачать
1 | 0

28-11-2019 20:33  

Отключить всю рекламу на сайте

    Дорогой пользователь! Огромная просьба, поблагодарите релизера, оцените раздачу и оставьте свои комментарий, если Вы скачали Американская принцесса через торрент бесплатно! Внесите свою лепту в развитие PiratBit!
    Комментировать посты могут только пользователи прошедшие не сложную регистрацию
    Показать сообщения:    

    Американская принцесса через торрент
    Скачать бесплатно Американская принцесса
    Американская принцесса скачать торрент
    Американская принцесса смотреть онлайн
    Cкачать фильм Американская принцесса бесплатно
    Американская принцесса скачать торрент в хорошем качестве
    Американская принцесса смотреть онлайн бесплатно в хорошем качестве


    Вы не можете начинать темы
    Вы не можете отвечать на сообщения
    Вы не можете редактировать свои сообщения
    Вы не можете удалять свои сообщения
    Вы не можете голосовать в опросах
    Вы не можете прикреплять файлы к сообщениям
    Вы можете скачивать файлы