Лицензия

MVO

1

1 сезон

Лицензия

Лицензия

13

MVO

1 сезон

Deluxe Edition

pack

Рекомендуем

30

Repack

ВАЖНО

ВАЖНО

Ghostwire

RePack

jed

RePack

fifa19

RePack

RDR2

RePack

NEED FOR SPEED™ PAYBACK

RePack

Кинопоиск HD

 Острые козырьки 6 сезон

6 сезон

FAR CRY 6

RePack

Лицензия

MVO

1

1 сезон

1 сезон

Лицензия

  

Голая правда / The Ugly Truth (Роберт Лукетич) [2009, мелодрама, комедия, BDRip 1080p by msltel] DUB

Голая правда через торрент pb.wtf

Размер: 10.37 GB | Добавлен: 3 года 3 мес. назад | Торрент скачан:18 раз
Смотреть онлайн Голая правда | Скачать   

09-06-2019 07:09 Голая правда Скачать торрент  

Название: Голая правда
Оригинальное название: The Ugly Truth
Год выпуска: 2009
Страна: США
Жанр: мелодрама, комедия
Продолжительность: 01:35:57
Перевод: дублированный

Режиссер: Роберт Лукетич
В ролях: Кэтрин Хейгл, Джерард Батлер, Бри Тёрнер, Эрик Винтер, Ник Сирси, Джесси Д. Гойнс, Шерил Хайнс, Джон Майкл Хиггинс, Ной Мэтьюз, Бонни Соммервиль

О фильме: Эбби Рихтер молода и амбициозна. Она работает продюсером утреннего ТВ-шоу на телеканале «A.M. Sacramento». Эбби гордится тем, что может моментально найти выход из любой ситуации и решить любую проблему... но не тогда, когда речь заходит о её личной жизни. Хоть Эбби и супер, но до сих пор одинока. Стоит ей, которая в другой ситуации собрана и безупречна, пойти на свидание, как её преследует неудача за неудачей...



Качество: BDRip 1080p
Формат: MKV
Видео: MPEG-4 AVC, 13.3 Mбит/с, 1920x800
Аудио 1: русский, AC3, 640 kbps, 6 ch, 48 kHz [дублированный]
Аудио 2: английский, DTS, 1509 kbps, 6 ch, 48 kHz [оригинал]
Субтитры 1: русские
Субтитры 2: английские
Главы/чаптеры
Общее
Уникальный идентификатор : 198816600171322288748123891337375451862 (0x9592AF32F220C1FD8271B8E4D9330AD6)
Полное имя : D:\Video\Голая правда.2009.BDRip 1080p by msltel.mkv
Формат : Matroska
Версия формата : Version 4
Размер файла : 10,4 Гбайт
Продолжительность : 1 ч. 35 м.
Общий поток : 15,5 Мбит/сек
Название фильма : Rip by msltel
Дата кодирования : UTC 2019-06-09 05:45:54
Программа кодирования : mkvmerge v8.2.0 ('World of Adventure') 64bit
Библиотека кодирования : libebml v1.3.1 + libmatroska v1.4.2

Видео
Идентификатор : 1
Формат : AVC
Формат/Информация : Advanced Video Codec
Профиль формата : [email protected]
Настройки формата : CABAC / 4 Ref Frames
Параметр CABAC формата : Да
Параметр RefFrames формата : 4 кадра
Идентификатор кодека : V_MPEG4/ISO/AVC
Продолжительность : 1 ч. 35 м.
Битрейт : 13,3 Мбит/сек
Ширина : 1920 пикселей
Высота : 800 пикселей
Соотношение сторон : 2,40:1
Режим частоты кадров : Постоянный
Частота кадров : 23,976 (24000/1001) кадра/сек
Цветовое пространство : YUV
Субдискретизация насыщенности : 4:2:0
Битовая глубина : 8 бит
Тип развёртки : Прогрессивная
Бит/(Пиксели*Кадры) : 0.362
Размер потока : 8,93 Гбайт (86%)
Библиотека кодирования : x264 core 157 r2935 545de2f
Настройки программы : cabac=1 / ref=4 / deblock=1:-2:-2 / analyse=0x3:0x113 / me=umh / subme=11 / psy=1 / psy_rd=1.00:0.15 / mixed_ref=1 / me_range=32 / chroma_me=1 / trellis=2 / 8x8dct=1 / cqm=0 / deadzone=21,11 / fast_pskip=0 / chroma_qp_offset=-3 / threads=6 / lookahead_threads=1 / sliced_threads=0 / nr=0 / decimate=1 / interlaced=0 / bluray_compat=0 / constrained_intra=0 / bframes=10 / b_pyramid=2 / b_adapt=2 / b_bias=0 / direct=1 / weightb=1 / open_gop=0 / weightp=2 / keyint=230 / keyint_min=23 / scenecut=40 / intra_refresh=0 / rc_lookahead=40 / rc=crf / mbtree=1 / crf=18.0 / qcomp=0.60 / qpmin=0 / qpmax=69 / qpstep=4 / vbv_maxrate=50000 / vbv_bufsize=62500 / crf_max=0.0 / nal_hrd=none / filler=0 / ip_ratio=1.40 / aq=1:1.00
Язык : English
Default : Да
Forced : Нет

Аудио #1
Идентификатор : 2
Формат : AC-3
Формат/Информация : Audio Coding 3
Коммерческое название : Dolby Digital
Идентификатор кодека : A_AC3
Продолжительность : 1 ч. 35 м.
Вид битрейта : Постоянный
Битрейт : 640 Кбит/сек
Каналы : 6 каналов
ChannelLayout : L R C LFE Ls Rs
Частота : 48,0 КГц
Частота кадров : 31,250 кадров/сек (1536 SPF)
Битовая глубина : 16 бит
Метод сжатия : С потерями
Размер потока : 439 Мбайт (4%)
Заголовок : DUB
Язык : Russian
ServiceKind/String : Complete Main
Default : Да
Forced : Нет

Аудио #2
Идентификатор : 3
Формат : DTS
Формат/Информация : Digital Theater Systems
Идентификатор кодека : A_DTS
Продолжительность : 1 ч. 35 м.
Вид битрейта : Постоянный
Битрейт : 1509 Кбит/сек
Каналы : 6 каналов
ChannelLayout : C L R Ls Rs LFE
Частота : 48,0 КГц
Частота кадров : 93,750 кадра/сек (512 SPF)
Битовая глубина : 24 бит
Метод сжатия : С потерями
Размер потока : 1,01 Гбайт (10%)
Заголовок : original
Язык : English
Default : Нет
Forced : Нет

Текст #1
Идентификатор : 4
Формат : UTF-8
Идентификатор кодека : S_TEXT/UTF8
Идентификатор кодека/Информация : UTF-8 Plain Text
Продолжительность : 1 ч. 30 м.
Битрейт : 129 бит/сек
ElementCount : 1469
Размер потока : 85,8 Кбайт (0%)
Заголовок : русские
Язык : Russian
Default : Нет
Forced : Нет

Текст #2
Идентификатор : 5
Формат : UTF-8
Идентификатор кодека : S_TEXT/UTF8
Идентификатор кодека/Информация : UTF-8 Plain Text
Продолжительность : 1 ч. 30 м.
Битрейт : 91 бит/сек
ElementCount : 1512
Размер потока : 60,8 Кбайт (0%)
Заголовок : английские
Язык : English
Default : Нет
Forced : Нет

Меню
00:00:00.000 : :Chapter 1
00:06:24.592 : :Chapter 2
00:12:32.209 : :Chapter 3
00:15:56.330 : :Chapter 4
00:20:12.419 : :Chapter 5
00:26:04.646 : :Chapter 6
00:32:02.712 : :Chapter 7
00:36:48.789 : :Chapter 8
00:41:46.128 : :Chapter 9
00:49:25.003 : :Chapter 10
00:56:43.358 : :Chapter 11
01:02:33.374 : :Chapter 12
01:08:01.660 : :Chapter 13
01:12:52.659 : :Chapter 14
01:18:49.683 : :Chapter 15
01:23:04.187 : :Chapter 16



Скачать Голая правда через торрент https://b.radikal.ru/b34/1906/4a/664f6f6ae39f.png Скачать, смотреть онлайн Голая правда бесплантно в хорошем качестве О фильме: Эбби Рихтер молода и амбициозна. Она работает продюсером утреннего ТВ-шоу на телеканале «A.M. Sacramento». Эбби гордится тем, что ... 10 10 2
Info! Золотая раздача, скачанное не засчитывается.
Торрент: Зарегистрирован [2019-06-09 07:09] · скачан: 18 раз
Статус: √ проверено
Размер: 10.37 GB
Как cкачать? Как скачать Голая правда через торрент | UTorrent

% Раздел Тема Автор DL S | L
Фильмы [HD 720p, 1080p] (Хороший звук DUB, MVO) [ 3.87 GB ] Голая правда / The Ugly Truth | DUB | 720p by msltel msltel Скачать
1 | 0
Фильмы (Blu-ray, BD-Remux, HDDVD) [ 36.49 GB ] Голая правда / The Ugly Truth | DUB | 1080p bober100 Скачать
1 | 0

28-11-2019 20:33  

Отключить вcю реклaмy на сайте

    Дорогой пользователь! Огромная просьба, поблагодарите релизера, оцените раздачу и оставьте свои комментарий, если Вы скачали Голая правда через торрент бесплатно!!
    Комментировать посты могут только пользователи прошедшие не сложную регистрацию
    Показать сообщения:    


    Голая правда через торрент
    Скачать бесплатно Голая правда
    Голая правда скачать торрент
    Голая правда смотреть онлайн
    Cкачать фильм Голая правда бесплатно
    Голая правда скачать торрент в хорошем качестве
    Голая правда смотреть онлайн бесплатно в хорошем качестве
    Вы не можете начинать темы
    Вы не можете отвечать на сообщения
    Вы не можете редактировать свои сообщения
    Вы не можете удалять свои сообщения
    Вы не можете голосовать в опросах
    Вы не можете прикреплять файлы к сообщениям
    Вы можете скачивать файлы