2 сезон

iTunes

1 сезон

1

iTunes

iTunes

iTunes

1 сезон

RePack

30

ИГРА 18+

pack

ВАЖНО

!!Акция!!

Alien_RageХит недели

RePack

MK11
pack

Забери бонус

RePack

jed

!!Акция!!

Alien_Rage

RePack

fifa19

RePack

Assassins Creed: Odyssey

RePack

NEED FOR SPEED™ PAYBACK

4 сезон

9 сезон

Бесстыжие 9 сезон

Все сериалы

все сериалы на PB.wtf

RePack

FAR CRY 5
  

Батальон / Серии: 1-4 из 4 (Алексей Быстрицкий) [2019, Военный, боевик, история, драма, SATRip] pb.wtf

Батальон через торрент pb.wtf

Размер: 2.53 GB | Добавлен: 1 год 4 мес. назад | Торрент скачан:132 раза
Скачать  

09-06-2019 11:34 Батальон Скачать торрент  

Батальон Год выпуска: 2019
Страна: Россия
Жанр: Военный, боевик, история, драма
Продолжительность: ~ 00:47:00 серия
Субтитры: отсутствуют

Режиссер: Алексей Быстрицкий



В ролях:

Максим Щёголев, Александр Бухаров, Михаил Бабичев, Полина Ястребова, Пьер Бурель, Александр Замураев, Андрей Стоянов, Пётр Королёв (II), Илья Волков, Глеб Гервассиев, Антон Багмет, Виталий Кондрашов, Павел Юдин, Зепюр Брутян, Денис Доронин, Марк Шихов, Сергей Гурьев (II), Олег Метелев, Виталий Гумеров

Описание:

Действие фильма развернётся в 1999 году, когда Югославия находилась на пике распада. Война, голод, разруха и мародёрство. Албанское население хочет навсегда избавить свою землю от сербов. Аэропорт города Приштина – важный стратегический объект, и если его займёт Армия освобождения Косово во главе с Брахимом, то местные албанцы устроят настоящий геноцид сербского народа. Командование России принимает решение захватить аэропорт первыми. Для того, чтобы удержать аэропорт до прихода батальона и не допустить передачу оружия и техники косовским боевикам, на объект отправляют группу спецназовцев ГРУ. Ситуация осложняется тем, что оружия нет, воздушное пространство закрыто, а до ближайшего российского батальона почти 10 часов ходьбы. Единственным, кто может помочь и добыть вооружение, остается разведчик Андрей, ранее внедрённый в армию Косово. Однако выполнить задание Андрею мешают цыгане, похитившие Венеру – дочь Брахима, в которую влюблен русский разведчик. Андрею необходимо принять сложное решение: между долгом перед Родиной и защитой чести любимой девушки необходимо выбрать что-то одно.

Качество: SATRip
Формат: AVI

Видео: 720x304 (2.37:1), 25 fps, XviD build 67 ~1695 kbps avg, 0.31 bit/pixel
Аудио: 48 kHz, MPEG Layer 3, 2 ch, ~192.00 kbps avg
скриншот  скриншот  скриншот  скриншот  

Общее
Полное имя : D:\Батальон.XviD.2018.SATRip.7turza\01.Батальон.7turza.avi
Формат : AVI
Формат/Информация : Audio Video Interleave
Размер файла : 635 Мбайт
Продолжительность : 46 м. 44 с.
Общий поток : 1901 Кбит/сек
Программа кодирования : Lavf58.20.100
Библиотека кодирования : VirtualDub build 35576/release

Видео
Идентификатор : 0
Формат : MPEG-4 Visual
Профиль формата : Advanced Simple@L5
Настройки формата : BVOP1
Параметр BVOP формата : 1
Параметр QPel формата : Нет
Параметр GMC формата : Без точки перехода
Параметр матрицы формата : Default (H.263)
Идентификатор кодека : XVID
Идентификатор кодека/Подсказка : XviD
Продолжительность : 46 м. 44 с.
Битрейт : 1696 Кбит/сек
Ширина : 720 пикселей
Высота : 304 пикселя
Соотношение сторон : 2,40:1
Частота кадров : 25,000 кадров/сек
Цветовое пространство : YUV
Субдискретизация насыщенности : 4:2:0
Битовая глубина : 8 бит
Тип развёртки : Прогрессивная
Бит/(Пиксели*Кадры) : 0.310
Размер потока : 567 Мбайт (89%)
Библиотека кодирования : XviD 67

Аудио
Идентификатор : 1
Формат : MPEG Audio
Версия формата : Version 1
Профиль формата : Layer 3
Настройки формата : Joint stereo / MS Stereo
Идентификатор кодека : 55
Идентификатор кодека/Подсказка : MP3
Продолжительность : 46 м. 44 с.
Вид битрейта : Постоянный
Битрейт : 192 Кбит/сек
Каналы : 2 канала
Частота : 48,0 КГц
Размер потока : 64,2 Мбайт (10%)
Выравнивание : Соединение по промежуткам
Продолжительность промежутка : 24 мс. (0,60 видеокадр)
Время предзагрузки промежутка : 504 мс.

Внимание! Раздача ведётся путём добавления новых серий; при каждом добавлении создаётся новый торрент. Чтобы начать докачку новой серии, пользователям необходимо сделать следующее:
(1) остановить скачивание,
(2) удалить старый торрент у себя из клиента (старые серии удалять не надо),
(3) скачать новый торрент и запустить его у себя в клиенте вместо старого, при этом указать клиенту путь в старую папку куда и должно происходить скачивание новых серий.
Ваш клиент при этом должен произвести хеширование (проверку) старой папки (если не производит сам - помогите ему сделать это), и будет докачивать только те серии которых у вас ещё нет. Старые серии при этом не удаляются, а продолжают раздаваться!
Eсли вы уже удалили старые серии, то предотвратить повторную закачку старых серий можно, отжав галочку в соответствующих местах при запуске нового торрента. По возможности, желательно не удалять старые серии как можно дольше чтобы релизёр не столько продолжал раздавать старые серии, а смог сконцентрироваться на новых.
pb.wtf



Скачать Батальон через торрент http://c.radikal.ru/c26/1906/1e/161561ffc7b5.jpg Скачать фильм Батальон через торрент бесплантно в хорошем качестве Описание: Действие фильма развернётся в 1999 году, когда Югославия находилась на пике распада. Война, голод, разруха и мародёрство. ... 9.1 10 10
Торрент: Зарегистрирован [2019-06-09 14:54] · скачан: 132 раз
Статус: √ проверено
Размер: 2.53 GB
Как cкачать? Как скачать Батальон через торрент | qTorrent

% Раздел Тема Автор DL S | L
Кино СССР [ 15.28 GB ] Батальоны просят огня [1985 военный ВОВ HDTV Оригинал] Бумер Скачать
1 | 1
Наши сериалы [ 2.45 GB ] Батальон / Серии: 1-4 из 4 [2019 Военный история WEBRip-AVC] bober100 Скачать
2 | 0
Наши сериалы [ 2.73 GB ] Батальон / Серии: 1-4 из 4 [2019 Военный история WEB-DLRip] bober100 Скачать
2 | 0
Наши сериалы [ 5.73 GB ] Батальон / Серии: 1-4 из 4 [2019 Военный история WEB-DL 720p] bober100 Скачать
1 | 0
Наши сериалы [ 8.39 GB ] Батальон / Серии: 1-4 из 4 [2019 Военный история WEB-DL 1080p] bober100 Скачать
1 | 0
Наши сериалы [ 2.44 GB ] Батальон / Серии: 1-4 из 4 [2019военный история SATRip-AVC] aleksan55 Скачать
1 | 0
Наши сериалы [ 2.43 GB ] Батальонъ / Серии: 1-4 из 4 [2014 военный фильм исторический фильм SATRip-AVC] aleksan55 Скачать
1 | 0

28-11-2019 20:33  

Отключить всю рекламу на сайте

    Дорогой пользователь! Огромная просьба, поблагодарите релизера, оцените раздачу и оставьте свои комментарий, если Вы скачали Батальон через торрент бесплатно! Внесите свою лепту в развитие PiratBit!
    Комментировать посты могут только пользователи прошедшие не сложную регистрацию
    Показать сообщения:    

    Батальон через торрент
    Скачать бесплатно Батальон
    Батальон скачать торрент
    Батальон смотреть онлайн
    Cкачать фильм Батальон бесплатно
    Батальон скачать торрент в хорошем качестве
    Батальон смотреть онлайн бесплатно в хорошем качестве


    Вы не можете начинать темы
    Вы не можете отвечать на сообщения
    Вы не можете редактировать свои сообщения
    Вы не можете удалять свои сообщения
    Вы не можете голосовать в опросах
    Вы не можете прикреплять файлы к сообщениям
    Вы можете скачивать файлы