Ссылка на приватное зеркало нашего сайта всего за 1$. Внимание количество ограничено!!!

2 сезон

iTunes

1 сезон

1

2 сезон

2 сезон

iTunes

1 сезон

RePack

30

Ultimate

ВАЖНО

ИГРА 18+

pack

RePack

MK11
pack

Забери бонус

RePack

jed

!!Акция!!

Alien_Rage

RePack

fifa19

RePack

Assassins Creed: Odyssey

RePack

NEED FOR SPEED™ PAYBACK

4 сезон

9 сезон

Бесстыжие 9 сезон

Все сериалы

все сериалы на PB.wtf

RePack

FAR CRY 5
  

Царство / Reign / Сезон: 4 / Серии: 1-16 из 16 (Мэттью Хатингс, Брэд Силберлинг) [2017, драма, фэнтези, WEB-DL 1080p] MVO [SDI Media] pb.wtf

Царство через торрент pb.wtf

Размер: 54.78 GB | Добавлен: 1 год 5 мес. назад | Торрент скачан:8 раз
Скачать  

09-06-2019 19:14 Царство Скачать торрент  

Царство / Reign Год выпуска: 2017
Страна: США
Жанр: Драма, фэнтези
Продолжительность: ~ 00:43:00
Перевод: Профессиональный (многоголосый закадровый) | SDI Media
Субтитры: Английские (SDH)

Режиссёр: Мэттью Хатингс, Брэд Силберлинг

В ролях:

Аделаида Кейн, Тоби Регбо, Торранс Кумбс, Меган Фоллоуз, Алан Ван Спрэнг, Селина Синден, Кэйтлин Стэйси, Анна Попплуэлл, Дженесса Грант, Россиф Сазерленд, Джонатан Кельтц, Яэль Гробглас, Джакомо Джианниотти, Кэтрин Прескотт, Анна Уолтон, Шон Дойл, Крэйг Паркер, Маноло Кардона, Эшли Чарльз, Кэти Боланд

Описание:

Действия разворачиваются в период юности Королевы Шотландии Марии Стюарт, которая должна стать супругой принца Франциска, сына короля Генриха второго, чтобы укрепить политический союз между державами. Мария прибывает во Францию в сопровождении своих фрейлин и знакомится с будущим супругом. Принц явно не заинтересован в этом союзе и всячески пытается ему помешать, так как уже увлечен одной из дворцовых красавиц. Помимо всех интриг и заговоров на политическом уровне со стороны противников свадьбы, незаконнорожденный сын Короля, Бэш, также принимает меры, чтобы разбить пару помолвленных - Марии и Франциска.




Качество: WEB-DL 1080p
Формат: MKV

Видео: MPEG-4 AVC, 1920x1080 [16:9], 23.976 fps, ~ 12000 Kbps
Аудио 1: [Русский] AC3, 2 ch, 192 Кбит/с - SDI Media
Аудио 2: [Английский] AC3, 6 ch, 640 Кбит/с
Релиз TeamHD - BenderBEST

• • Запись и работа со звуком - BenderBEST
• Благодарю заказчика сериала за спонсирование раздачи!
Общее
Уникальный идентификатор : 253984492589972831719123622240736221911 (0xBF13A24BC937A5389F17EB7AC0A79AD7)
Полное имя : S:\Reign.S04.1080p.AMZN.WEB-DL.Rus.Eng_TeamHD\Reign.S04E01.With.Friends.Like.These.1080p.AMZN.WEB-DL.Rus.Eng_TeamHD.mkv
Формат : Matroska
Версия формата : Version 4 / Version 2
Размер файла : 3,78 Гбайт
Продолжительность : 41 м.
Режим общего битрейта : Переменный
Общий поток : 13,1 Мбит/сек
Название фильма : Reign S04E01 - ReJliz TeamHD by BenderBEST
Дата кодирования : UTC 2018-09-25 22:04:09
Программа кодирования : mkvmerge v6.9.1 ('Blue Panther') 32bit built on Apr 18 2014 18:15:44
Библиотека кодирования : libebml v1.3.0 + libmatroska v1.4.1

Видео
Идентификатор : 1
Формат : AVC
Формат/Информация : Advanced Video Codec
Профиль формата : High@L4
Параметр CABAC формата : Да
Параметр ReFrames формата : 4 кадра
Идентификатор кодека : V_MPEG4/ISO/AVC
Продолжительность : 41 м.
Вид битрейта : Переменный
Битрейт : 12,0 Мбит/сек
Максимальный битрейт : 15,0 Мбит/сек
Ширина : 1920 пикселей
Высота : 1080 пикселей
Соотношение сторон : 16:9
Режим частоты кадров : Постоянный
Частота кадров : 23,976 (24000/1001) кадра/сек
Цветовое пространство : YUV
Субдискретизация насыщенности : 4:2:0
Битовая глубина : 8 бит
Тип развёртки : Прогрессивная
Бит/(Пиксели*Кадры) : 0.241
Размер потока : 3,47 Гбайт (92%)
Язык : English
Default : Да
Forced : Да
Цветовой диапазон : Limited
Основные цвета : BT.709
Характеристики трансфера : BT.709
Коэффициенты матрицы : BT.709

Аудио #1
Идентификатор : 2
Формат : AC-3
Формат/Информация : Audio Coding 3
Расширение режима : CM (complete main)
Параметр Endianness формата : Big
Идентификатор кодека : A_AC3
Продолжительность : 41 м.
Вид битрейта : Постоянный
Битрейт : 192 Кбит/сек
Каналы : 2 канала
Расположение каналов : Front: L R
Частота : 48,0 КГц
Частота кадров : 31,250 кадров/сек (1536 spf)
Метод сжатия : С потерями
Размер потока : 56,9 Мбайт (1%)
Заголовок : AC3 2.0 @ 192 kbps - MVO, SDI Media
Язык : Russian
Default : Да
Forced : Да

Аудио #2
Идентификатор : 3
Формат : AC-3
Формат/Информация : Audio Coding 3
Расширение режима : CM (complete main)
Параметр Endianness формата : Big
Идентификатор кодека : A_AC3
Продолжительность : 41 м.
Вид битрейта : Постоянный
Битрейт : 640 Кбит/сек
Каналы : 6 каналов
Расположение каналов : Front: L C R, Side: L R, LFE
Частота : 48,0 КГц
Частота кадров : 31,250 кадров/сек (1536 spf)
Метод сжатия : С потерями
Размер потока : 190 Мбайт (5%)
Заголовок : AC3 5.1 @ 640 kbps
Язык : English
Default : Нет
Forced : Нет

Текст
Идентификатор : 4
Формат : UTF-8
Идентификатор кодека : S_TEXT/UTF8
Идентификатор кодека/Информация : UTF-8 Plain Text
Заголовок : SDH
Язык : English
Default : Нет
Forced : Нет
pb.wtf



Скачать Царство через торрент https://c.radikal.ru/c20/1901/39/74b420062e06.jpg Скачать фильм Царство через торрент бесплантно в хорошем качестве Описание: Действия разворачиваются в период юности Королевы Шотландии Марии Стюарт, которая должна стать супругой принца Франциска, сына ... 10 10 4
Торрент: Зарегистрирован [2019-06-09 19:14] · скачан: 8 раз
Статус: √ проверено
Размер: 54.78 GB
Как cкачать? Как скачать Царство через торрент | qTorrent

28-11-2019 20:33  

Отключить всю рекламу на сайте

    Дорогой пользователь! Огромная просьба, поблагодарите релизера, оцените раздачу и оставьте свои комментарий, если Вы скачали Царство через торрент бесплатно! Внесите свою лепту в развитие PiratBit!
    Комментировать посты могут только пользователи прошедшие не сложную регистрацию
    Показать сообщения:    

    Царство через торрент
    Скачать бесплатно Царство
    Царство скачать торрент
    Царство смотреть онлайн
    Cкачать фильм Царство бесплатно
    Царство скачать торрент в хорошем качестве
    Царство смотреть онлайн бесплатно в хорошем качестве


    Вы не можете начинать темы
    Вы не можете отвечать на сообщения
    Вы не можете редактировать свои сообщения
    Вы не можете удалять свои сообщения
    Вы не можете голосовать в опросах
    Вы не можете прикреплять файлы к сообщениям
    Вы можете скачивать файлы