2 сезон

iTunes

1 сезон

1

iTunes

iTunes

iTunes

1 сезон

RePack

30

ИГРА 18+

pack

ВАЖНО

!!Акция!!

Alien_RageХит недели

RePack

MK11
pack

Забери бонус

RePack

jed

!!Акция!!

Alien_Rage

RePack

fifa19

RePack

Assassins Creed: Odyssey

RePack

NEED FOR SPEED™ PAYBACK

4 сезон

9 сезон

Бесстыжие 9 сезон

Все сериалы

все сериалы на PB.wtf

RePack

FAR CRY 5
  

Перелётные птицы / Серии: 1-4 из 4 (Богдан Дробязко) [2014, драма, криминал, HDTV 1080i] pb.wtf

Перелётные птицы через торрент pb.wtf

Размер: 10.46 GB | Добавлен: 1 год 4 мес. назад | Торрент скачан:4 раза
Скачать  

10-06-2019 04:12 Перелётные птицы Скачать торрент  

Перелётные птицы Год выпуска: 2014
Страна: Украина
Жанр: драма, криминал
Продолжительность: ~ 00:45:00
Перевод: Не требуется
Субтитры: отсутствуют

Режиссер: Богдан Дробязко



В ролях:

Илья Шакунов, Кристина Бабушкина, Игорь Савочкин, Андрей Межулис, Николай Боклан, Виталий Линецкий, Мерджен Халлыева, Ольга Сторожук

Описание:

В небольшом поселке на границе с Латвией угрюмый, нелюдимый человек по прозвищу Гудини промышляет доставкой нелегалов в Европу по секретной тропе, минуя пограничников. Ему все равно, кого переправлять: беженцев, преступников или просто мотающихся по свету людей. Никто не знает, кто он такой, откуда, и почему этим занимается. Единственное, что известно о Гудини – он всегда выполняет свою работу со стопроцентной гарантией. Однажды ему приходится сопровождать в другую страну маленькую беспризорную мулатку Машу, которую бандиты хотят продать на органы. Волей судьбы два одиноких человека - большой и маленький – оказываются в эпицентре криминальных событий

Качество: HDTV 1080i
Формат: TS

Видео: ~ 7900 Кбит/с, 1920x1080
Аудио: MP2, 2 ch, 192 Кбит/с
скриншот  скриншот  скриншот  скриншот  

Общее
Идентификатор : 1 (0x1)
Полное имя : D:\Pereletnye.ptitsy.2014.HDTV.1080i\Pereletnye.ptitsy.01.2014.HDTV.1080i.ts
Формат : MPEG-TS
Размер файла : 2,54 Гбайт
Продолжительность : 42 м. 56 с.
Режим общего битрейта : Переменный
Общий поток : 8476 Кбит/сек

Видео
Идентификатор : 901 (0x385)
Идентификатор меню : 90 (0x5A)
Формат : AVC
Формат/Информация : Advanced Video Codec
Профиль формата : Main@L4
Параметр CABAC формата : Да
Параметр RefFrames формата : 2 кадра
Параметр GOP формата : M=3, N=30
Идентификатор кодека : 27
Продолжительность : 42 м. 56 с.
Битрейт : 7863 Кбит/сек
Ширина : 1920 пикселей
Высота : 1080 пикселей
Соотношение сторон : 16:9
Частота кадров : 25,000 кадров/сек
Цветовое пространство : YUV
Субдискретизация насыщенности : 4:2:0
Битовая глубина : 8 бит
Тип развёртки : MBAFF
Метод сохранения типа развёртки : Чередующиеся поля
Порядок развёртки : Верхнее поле первое
Бит/(Пиксели*Кадры) : 0.152
Размер потока : 2,36 Гбайт (93%)
Цветовой диапазон : Limited
Основные цвета : BT.709
Характеристики трансфера : BT.709
Коэффициенты матрицы : BT.709

Аудио
Идентификатор : 902 (0x386)
Идентификатор меню : 90 (0x5A)
Формат : MPEG Audio
Версия формата : Version 1
Профиль формата : Layer 2
Идентификатор кодека : 3
Продолжительность : 42 м. 56 с.
Вид битрейта : Постоянный
Битрейт : 192 Кбит/сек
Каналы : 2 канала
Частота : 48,0 КГц
Метод сжатия : С потерями
Размер потока : 59,0 Мбайт (2%)
Язык : Russian

pb.wtf



Скачать Перелётные птицы через торрент http://s10.image1.org/images/2014/04/11/1/0b7dccdb1269c3a3ef0765231e22e1b7.jpg Скачать фильм Перелётные птицы через торрент бесплантно в хорошем качестве Описание: В небольшом поселке на границе с Латвией угрюмый, нелюдимый человек по прозвищу Гудини промышляет доставкой нелегалов в Европу по ... 10 10 3
Торрент: Зарегистрирован [2019-06-10 04:12] · скачан: 4 раз
Статус: √ проверено
Размер: 10.46 GB
Как cкачать? Как скачать Перелётные птицы через торрент | qTorrent

% Раздел Тема Автор DL S | L
Наши сериалы [ 2.04 GB ] Перелётные птицы / Серии: 1-4 из 4 [2019 SATRip-AVC] aleksan55 Скачать
1 | 0
Наши сериалы [ 2.28 GB ] Перелётные птицы / Серии: 1-4 из 4 [2019 SATRip] bober100 Скачать
1 | 0
Наши сериалы [ 7.39 GB ] Перелётные птицы / Серии: 1-4 из 4 [2014 HDTVRip 720p] bober100 Скачать
1 | 0
Наши сериалы [ 2.17 GB ] Перелётные птицы Сезон: 1 / Серии: 4 из 4 [2014 военный SATRip] White Smoke Скачать
1 | 0

28-11-2019 20:33  

Отключить всю рекламу на сайте

    Дорогой пользователь! Огромная просьба, поблагодарите релизера, оцените раздачу и оставьте свои комментарий, если Вы скачали Перелётные птицы через торрент бесплатно! Внесите свою лепту в развитие PiratBit!
    Комментировать посты могут только пользователи прошедшие не сложную регистрацию
    Показать сообщения:    

    Перелётные птицы через торрент
    Скачать бесплатно Перелётные птицы
    Перелётные птицы скачать торрент
    Перелётные птицы смотреть онлайн
    Cкачать фильм Перелётные птицы бесплатно
    Перелётные птицы скачать торрент в хорошем качестве
    Перелётные птицы смотреть онлайн бесплатно в хорошем качестве


    Вы не можете начинать темы
    Вы не можете отвечать на сообщения
    Вы не можете редактировать свои сообщения
    Вы не можете удалять свои сообщения
    Вы не можете голосовать в опросах
    Вы не можете прикреплять файлы к сообщениям
    Вы можете скачивать файлы